<?xml version="1.0" standalone="no"?>
<!DOCTYPE svg PUBLIC "-//W3C//DTD SVG 1.1//EN" "http://www.w3.org/Graphics/SVG/1.1/DTD/svg11.dtd" >
<svg xmlns="http://www.w3.org/2000/svg" xmlns:xlink="http://www.w3.org/1999/xlink" version="1.1">
<metadata>
Created by FontForge 20201107 at Wed Jul 17 16:26:10 2024
 By 
Copyright (c) 1989, 1995, 2002 Adobe Systems Incorporated.  All Rights Reserved. (c) 1981, 1995, 2002 Heidelberger Druckmaschinen AG. All rights reserved.
</metadata>
<defs>
<font id="AvenirLTStd-Black" horiz-adv-x="532" >
  <font-face 
    font-family="Avenir LT Std 65 Medium"
    font-weight="750"
    font-stretch="normal"
    units-per-em="2048"
    panose-1="2 11 8 3 2 2 3 2 2 4"
    ascent="1638"
    descent="-410"
    x-height="995"
    cap-height="1450"
    bbox="-330 -512 2324 1952"
    underline-thickness="102"
    underline-position="-204"
    unicode-range="U+0020-FB02"
  />
<missing-glyph horiz-adv-x="1024" 
d="M0 0v1434h1024v-1434h-1024zM512 809l348 522h-696zM573 717l349 -522v1044zM164 102h696l-348 523zM102 1239v-1044l349 522z" />
    <glyph glyph-name="fi" unicode="fi" horiz-adv-x="1290" 
d="M870 0v995h308v-995h-308zM846 1309q0 73 52 125.5t126 52.5t126 -52.5t52 -125.5q0 -74 -52.5 -126.5t-125.5 -52.5t-125.5 52.5t-52.5 126.5zM215 0v750h-203v245h203v176q0 71 8 125.5t33 109t66.5 89.5t113 56.5t168.5 21.5q103 0 180 -19l-14 -260q-61 21 -100 21
q-78 0 -113 -34t-35 -128v-158h228v-245h-228v-750h-307z" />
    <glyph glyph-name="fl" unicode="fl" horiz-adv-x="1290" 
d="M870 0v1548h308v-1548h-308zM215 0v750h-203v245h203v176q0 71 8 125.5t33 109t66.5 89.5t113 56.5t168.5 21.5q103 0 180 -19l-14 -260q-61 21 -100 21q-78 0 -113 -34t-35 -128v-158h228v-245h-228v-750h-307z" />
    <glyph glyph-name=".notdef" horiz-adv-x="1024" 
d="M0 0v1434h1024v-1434h-1024zM512 809l348 522h-696zM573 717l349 -522v1044zM164 102h696l-348 523zM102 1239v-1044l349 522z" />
    <glyph glyph-name=".null" horiz-adv-x="0" 
 />
    <glyph glyph-name="nonmarkingreturn" horiz-adv-x="682" 
 />
    <glyph glyph-name="space" unicode=" " horiz-adv-x="606" 
 />
    <glyph glyph-name="exclam" unicode="!" horiz-adv-x="909" 
d="M608 1450v-971h-307v971h307zM266 176q0 78 55.5 133.5t133.5 55.5t133 -55.5t55 -133.5t-55 -133t-133 -55t-133.5 55t-55.5 133z" />
    <glyph glyph-name="quotedbl" unicode="&#x22;" horiz-adv-x="1064" 
d="M641 872v578h258v-578h-258zM166 872v578h258v-578h-258z" />
    <glyph glyph-name="numbersign" unicode="#" horiz-adv-x="1212" 
d="M207 0l57 412h-172v184h197l35 258h-172v184h196l58 412h198l-57 -412h203l57 412h199l-58 -412h172v-184h-196l-35 -258h172v-184h-197l-57 -412h-199l58 412h-203l-57 -412h-199zM690 596l35 258h-203l-35 -258h203z" />
    <glyph glyph-name="dollar" unicode="$" horiz-adv-x="1212" 
d="M672 1618v-143q121 0 237.5 -31.5t200.5 -97.5l-197 -240q-92 79 -241 86v-326l196 -57q139 -41 218 -136.5t79 -234.5q0 -104 -39 -189t-107.5 -140.5t-156 -89.5t-190.5 -44v-143h-135v143q-324 0 -506 166l217 244q92 -113 289 -127v346l-150 45q-160 51 -238.5 141.5
t-78.5 241.5q0 94 38.5 173.5t104.5 134.5t149 89.5t175 45.5v143h135zM537 899v287q-148 -31 -148 -139q0 -29 9 -52.5t21 -37.5t31.5 -25.5t32 -16t32 -10t22.5 -6.5zM672 569v-307q74 14 124 51t50 101q0 32 -10 55t-32 39t-40.5 25t-52.5 22z" />
    <glyph glyph-name="percent" unicode="%" horiz-adv-x="1857" 
d="M1040 383q0 169 118 287t286 118q167 0 285 -118t118 -287t-118 -288.5t-285 -119.5t-285.5 119.5t-118.5 288.5zM1638 383q0 82 -56.5 139.5t-137.5 57.5q-82 0 -138.5 -57.5t-56.5 -139.5q0 -83 56.5 -141t138.5 -58t138 58t56 141zM10 1069q0 169 118.5 287.5
t285.5 118.5t285 -118.5t118 -287.5t-118 -287t-285 -118q-168 0 -286 118t-118 287zM608 1069q0 82 -56.5 139.5t-137.5 57.5q-82 0 -138.5 -57.5t-56.5 -139.5t56.5 -139.5t138.5 -57.5q81 0 137.5 57.5t56.5 139.5zM430 23l830 1493l172 -97l-846 -1485z" />
    <glyph glyph-name="ampersand" unicode="&#x26;" horiz-adv-x="1554" 
d="M1524 748l-305 -406l323 -342h-395l-121 137q-88 -91 -191.5 -132.5t-234.5 -41.5q-80 0 -154 17t-140 52.5t-114.5 86t-77 122t-28.5 156.5q0 136 87 244t220 152q-84 91 -122 159t-38 166q0 95 38 168t102.5 115.5t143.5 64t169 21.5q85 0 160 -22t134 -64.5t93.5 -112
t34.5 -158.5q0 -121 -74.5 -217.5t-193.5 -158.5l186 -199l141 193h357zM682 1241q-61 0 -101 -37t-40 -98q0 -25 10.5 -50.5t33 -52t36.5 -40.5t41 -39q163 96 163 186q0 61 -41 96t-102 35zM840 340l-256 278q-85 -52 -114 -81q-52 -53 -52 -125q0 -77 58 -128t136 -51
q64 0 115.5 27t112.5 80z" />
    <glyph glyph-name="quotesingle" unicode="'" horiz-adv-x="606" 
d="M174 872v578h258v-578h-258z" />
    <glyph glyph-name="parenleft" unicode="(" horiz-adv-x="643" 
d="M389 1499l211 -123q-91 -143 -144 -251.5t-86.5 -245t-33.5 -289.5t33.5 -289.5t86.5 -246t144 -251.5l-211 -122l-4 8q-146 217 -220.5 436.5t-74.5 464.5t74.5 464.5t220.5 436.5z" />
    <glyph glyph-name="parenright" unicode=")" horiz-adv-x="643" 
d="M254 -319l-211 122q91 142 144 251.5t86.5 246t33.5 289.5t-33.5 289.5t-86.5 245t-144 251.5l211 123l4 -8q146 -217 220.5 -436.5t74.5 -464.5t-74.5 -464.5t-220.5 -436.5z" />
    <glyph glyph-name="asterisk" unicode="*" horiz-adv-x="987" 
d="M600 1450v-283l268 88l62 -194l-268 -86l169 -234l-169 -125l-173 236l-165 -225l-166 125l172 223l-273 94l66 195l268 -97v283h209z" />
    <glyph glyph-name="plus" unicode="+" horiz-adv-x="1363" 
d="M121 492v258h432v432h258v-432h432v-258h-432v-433h-258v433h-432z" />
    <glyph glyph-name="comma" unicode="," horiz-adv-x="606" 
d="M35 -246l151 578h295l-184 -578h-262z" />
    <glyph glyph-name="hyphen" unicode="-" horiz-adv-x="606" 
d="M555 633v-246h-504v246h504z" />
    <glyph glyph-name="period" unicode="." horiz-adv-x="606" 
d="M115 176q0 78 55 133.5t133 55.5t133.5 -55.5t55.5 -133.5t-55.5 -133t-133.5 -55t-133 55t-55 133z" />
    <glyph glyph-name="slash" unicode="/" horiz-adv-x="833" 
d="M-6 -37l612 1596l234 -72l-615 -1596z" />
    <glyph glyph-name="zero" unicode="0" horiz-adv-x="1212" 
d="M68 725q0 78 7 150.5t24.5 148.5t44.5 141t70 123t97.5 98.5t129.5 64.5t165 24q104 0 189 -31t142.5 -87.5t99 -127t64.5 -157.5t33.5 -171.5t10.5 -175.5t-10.5 -175.5t-33.5 -171.5t-64.5 -157.5t-99 -127t-142.5 -87.5t-189 -31q-90 0 -165 24t-129.5 64.5
t-97.5 98.5t-70 123t-44.5 141t-24.5 148.5t-7 150.5zM375 725q0 -41 1 -74.5t6 -84t14 -89.5t26.5 -82t41 -71.5t60 -47t82.5 -18.5q232 0 232 467t-232 467q-46 0 -82.5 -18.5t-60 -47t-41 -71.5t-26.5 -82t-14 -89.5t-6 -84t-1 -74.5z" />
    <glyph glyph-name="one" unicode="1" horiz-adv-x="1212" 
d="M590 0v1106l-291 -256l-174 201l473 399h287v-1450h-295z" />
    <glyph glyph-name="two" unicode="2" horiz-adv-x="1212" 
d="M100 0v326l564 505q29 27 36.5 34t32 33.5t33 42.5t18 42t9.5 51q0 71 -52.5 114.5t-126.5 43.5q-82 0 -132 -51.5t-56 -132.5l-307 22q13 218 152 331.5t360 113.5q207 0 338 -113.5t131 -323.5q0 -130 -49 -219t-142 -170l-440 -379h643v-270h-1012z" />
    <glyph glyph-name="three" unicode="3" horiz-adv-x="1212" 
d="M442 612v267h101q48 0 85 6.5t73 22.5t55.5 49.5t19.5 82.5q0 65 -52 108.5t-128 43.5q-70 0 -118 -38t-62 -97l-338 69q30 122 107.5 202t179 113.5t229.5 33.5q99 0 185.5 -24.5t155.5 -72.5t108.5 -127t39.5 -180q0 -122 -64.5 -207.5t-182.5 -109.5v-6
q127 -17 199.5 -112t72.5 -226q0 -141 -72 -241t-188 -147t-262 -47q-202 0 -339.5 93.5t-180.5 281.5l323 76q33 -168 215 -168q97 0 147 50.5t50 135.5q0 34 -9.5 61t-23 44.5t-38 29.5t-45.5 18.5t-55 10t-56.5 4t-59.5 0.5h-72z" />
    <glyph glyph-name="four" unicode="4" horiz-adv-x="1212" 
d="M682 0v291h-633v258l592 901h336v-901h186v-258h-186v-291h-295zM682 549v500h-4l-322 -500h326z" />
    <glyph glyph-name="five" unicode="5" horiz-adv-x="1212" 
d="M1059 1450v-270h-576l-6 -224q50 17 129 17q223 0 362.5 -129.5t139.5 -349.5q0 -160 -72.5 -279t-197 -179.5t-283.5 -60.5q-190 0 -316 94t-173 277l321 74q12 -79 66 -126.5t133 -47.5q97 0 156 61t59 156q0 68 -29 117t-79 74.5t-105.5 36.5t-120.5 11
q-147 0 -301 -53l16 801h877z" />
    <glyph glyph-name="six" unicode="6" horiz-adv-x="1212" 
d="M928 1450l-340 -518q58 14 100 14q201 0 328 -136t127 -337q0 -146 -72 -260.5t-195 -176t-274 -61.5t-274 61.5t-195 176t-72 260.5q0 75 12.5 139t43 129.5t51.5 102t68 110.5l317 496h375zM836 485q0 99 -66 163.5t-168 64.5t-167.5 -64.5t-65.5 -163.5t65.5 -163
t167.5 -64t168 64t66 163z" />
    <glyph glyph-name="seven" unicode="7" horiz-adv-x="1212" 
d="M199 0l594 1167h-717v283h1061v-270l-580 -1180h-358z" />
    <glyph glyph-name="eight" unicode="8" horiz-adv-x="1212" 
d="M121 1075q0 129 66.5 221t174.5 135.5t244 43.5t244 -43.5t175 -135.5t67 -221q0 -119 -64.5 -203t-181.5 -118v-4q130 -35 200 -126.5t70 -226.5q0 -82 -27.5 -151.5t-75 -118.5t-112 -84t-139.5 -51.5t-156 -16.5t-156 16.5t-139.5 51.5t-112 84t-75 118.5t-27.5 151.5
q0 135 70 226.5t201 126.5v4q-117 34 -181.5 118t-64.5 203zM428 1032q0 -69 50 -115.5t128 -46.5t128 46.5t50 115.5q0 67 -50 113.5t-128 46.5t-128 -46.5t-50 -113.5zM403 440q0 -77 57 -129.5t146 -52.5t146 52.5t57 129.5q0 78 -57 131.5t-146 53.5t-146 -53.5
t-57 -131.5z" />
    <glyph glyph-name="nine" unicode="9" horiz-adv-x="1212" 
d="M285 0l340 518q-58 -14 -101 -14q-201 0 -327.5 136t-126.5 337q0 146 72 260.5t194.5 176t273.5 61.5t274 -61.5t195 -176t72 -260.5q0 -75 -12.5 -139.5t-42 -129t-51.5 -102t-68 -110.5l-318 -496h-374zM377 965q0 -99 65.5 -163.5t167.5 -64.5t168 64.5t66 163.5
t-66 163t-168 64t-167.5 -64t-65.5 -163z" />
    <glyph glyph-name="colon" unicode=":" horiz-adv-x="606" 
d="M115 176q0 78 55 133.5t133 55.5t133.5 -55.5t55.5 -133.5t-55.5 -133t-133.5 -55t-133 55t-55 133zM115 831q0 78 55 133.5t133 55.5t133.5 -55.5t55.5 -133.5t-55.5 -133t-133.5 -55t-133 55t-55 133z" />
    <glyph glyph-name="semicolon" unicode=";" horiz-adv-x="606" 
d="M35 -246l151 578h295l-184 -578h-262zM115 831q0 78 55 133.5t133 55.5t133.5 -55.5t55.5 -133.5t-55.5 -133t-133.5 -55t-133 55t-55 133z" />
    <glyph glyph-name="less" unicode="&#x3c;" horiz-adv-x="1363" 
d="M1200 1155v-278l-649 -254v-5l649 -253v-279l-1036 406v258z" />
    <glyph glyph-name="equal" unicode="=" horiz-adv-x="1363" 
d="M121 688v258h1122v-258h-1122zM121 295v258h1122v-258h-1122z" />
    <glyph glyph-name="greater" unicode="&#x3e;" horiz-adv-x="1363" 
d="M164 86v279l649 253v5l-649 254v278l1036 -405v-258z" />
    <glyph glyph-name="question" unicode="?" horiz-adv-x="1138" 
d="M442 479v90q0 116 72 185q35 33 84.5 77t75 68t52.5 54t38.5 55.5t11.5 52.5q0 66 -41 104.5t-106 38.5q-91 0 -144 -51.5t-59 -130.5l-315 20q21 214 158 329.5t354 115.5q127 0 230 -45t166.5 -138t63.5 -221q0 -117 -54 -202t-200 -201q-79 -61 -79 -141v-60h-308z
M408 176q0 78 55 133.5t133 55.5t133 -55.5t55 -133.5t-55 -133t-133 -55t-133 55t-55 133z" />
    <glyph glyph-name="at" unicode="@" horiz-adv-x="1638" 
d="M973 745q0 85 -39 137t-113 52q-92 0 -148.5 -73t-56.5 -181q0 -77 32 -129.5t110 -52.5q61 0 105.5 22t67 60t32.5 78.5t10 86.5zM1239 1094l-76 -404q-18 -88 -18 -135q0 -57 55 -57q72 0 124 78t52 227q0 160 -69 274.5t-188.5 170t-276.5 55.5q-253 0 -410.5 -163
t-157.5 -417q0 -175 78.5 -307t215 -200.5t309.5 -68.5q231 0 387 125h225q-107 -149 -273 -229t-356 -80q-217 0 -398 96.5t-288.5 271.5t-107.5 392q0 160 62 302.5t167 243.5t249 159.5t304 58.5q109 0 213.5 -28t197 -85t162.5 -136t111 -189t41 -236q0 -90 -19 -165
t-49.5 -125.5t-72 -89.5t-83.5 -61t-87.5 -36t-79.5 -18.5t-64 -4.5q-80 0 -120 33t-42 78h-4q-107 -111 -262 -111q-132 0 -213.5 95.5t-81.5 248.5q0 121 48.5 225.5t143.5 170t218 65.5q83 0 137 -27.5t84 -89.5h4l17 93h192z" />
    <glyph glyph-name="A" unicode="A" horiz-adv-x="1517" 
d="M-2 0l627 1450h264l631 -1450h-361l-125 307h-563l-121 -307h-352zM926 578l-178 450l-177 -450h355z" />
    <glyph glyph-name="B" unicode="B" horiz-adv-x="1327" 
d="M147 0v1450h541q69 0 128 -5.5t122 -19.5t111.5 -41.5t88 -66.5t60.5 -99.5t21 -136.5q0 -118 -67 -200.5t-183 -118.5v-4q143 -19 230 -116.5t87 -238.5q0 -88 -32 -158t-85 -115t-125 -75t-147 -42.5t-156 -12.5h-594zM467 1180v-310h231q84 0 142.5 38.5t58.5 119.5
q0 43 -19 74.5t-51.5 47.5t-68 23t-76.5 7h-217zM467 600v-330h287q54 0 100 15t79.5 55t33.5 100q0 49 -24.5 82.5t-66.5 49.5t-82 22t-85 6h-242z" />
    <glyph glyph-name="C" unicode="C" horiz-adv-x="1402" 
d="M1341 1274l-245 -201q-99 119 -275 119q-182 0 -301 -132.5t-119 -334.5q0 -201 118 -334t292 -133q95 0 172 40.5t127 115.5l266 -199q-87 -124 -227.5 -188t-296.5 -64q-226 0 -403 92.5t-278 267t-101 402.5t101 402.5t278 267t403 92.5q137 0 270 -51.5t219 -161.5z
" />
    <glyph glyph-name="D" unicode="D" horiz-adv-x="1554" 
d="M147 0v1450h480q144 0 269 -24.5t234.5 -80t187.5 -138.5t122.5 -207t44.5 -279q0 -137 -43 -254.5t-119.5 -202.5t-179 -145t-223 -89.5t-250.5 -29.5h-523zM467 1155v-860h166q92 0 168.5 14t142.5 46.5t111.5 83t71.5 126t26 172.5q0 104 -39.5 185t-108.5 131
t-158 76t-192 26h-188z" />
    <glyph glyph-name="E" unicode="E" horiz-adv-x="1290" 
d="M160 0v1450h985v-295h-666v-270h629v-295h-629v-295h703v-295h-1022z" />
    <glyph glyph-name="F" unicode="F" horiz-adv-x="1214" 
d="M160 0v1450h973v-295h-654v-295h604v-295h-604v-565h-319z" />
    <glyph glyph-name="G" unicode="G" horiz-adv-x="1593" 
d="M1460 860v-758q-267 -139 -608 -139q-226 0 -403 92.5t-278 267t-101 402.5t101 402.5t278 267t403 92.5q377 0 578 -187l-226 -245q-66 70 -150 103.5t-202 33.5q-202 0 -326.5 -131t-124.5 -336t124.5 -336t326.5 -131q172 0 301 72v235h-260v295h567z" />
    <glyph glyph-name="H" unicode="H" horiz-adv-x="1554" 
d="M147 0v1450h320v-541h620v541h320v-1450h-320v627h-620v-627h-320z" />
    <glyph glyph-name="I" unicode="I" horiz-adv-x="606" 
d="M143 0v1450h320v-1450h-320z" />
    <glyph glyph-name="J" unicode="J" horiz-adv-x="1024" 
d="M897 1450v-965q0 -88 -10 -158t-40 -140.5t-80 -117.5t-134.5 -76.5t-198.5 -29.5q-177 0 -293.5 84.5t-150.5 253.5l293 72q6 -52 48 -89.5t95 -37.5q31 0 55.5 10t40.5 24.5t27 39.5t16.5 46t8.5 53t3.5 51t0.5 50v930h319z" />
    <glyph glyph-name="K" unicode="K" horiz-adv-x="1478" 
d="M160 0v1450h319v-602l563 602h418l-645 -674l701 -776h-447l-590 688v-688h-319z" />
    <glyph glyph-name="L" unicode="L" horiz-adv-x="1099" 
d="M160 0v1450h319v-1155h592v-295h-911z" />
    <glyph glyph-name="M" unicode="M" horiz-adv-x="1933" 
d="M147 0v1450h484l334 -946h4l336 946h481v-1450h-320v1112h-4l-381 -1112h-243l-367 1112h-4v-1112h-320z" />
    <glyph glyph-name="N" unicode="N" horiz-adv-x="1669" 
d="M147 0v1450h435l616 -1008h4v1008h320v-1450h-418l-633 1032h-4v-1032h-320z" />
    <glyph glyph-name="O" unicode="O" horiz-adv-x="1703" 
d="M70 725q0 228 101 402.5t278 267t403 92.5t403 -92.5t278 -267t101 -402.5t-101 -402.5t-278 -267t-403 -92.5t-403 92.5t-278 267t-101 402.5zM401 725q0 -205 124.5 -336t326.5 -131t326.5 131t124.5 336t-124.5 336t-326.5 131t-326.5 -131t-124.5 -336z" />
    <glyph glyph-name="P" unicode="P" horiz-adv-x="1290" 
d="M147 0v1450h539q551 0 551 -440q0 -445 -537 -445h-233v-565h-320zM467 1180v-344h213q97 0 161 40.5t64 133.5q0 53 -24 89t-68 52.5t-86 22.5t-96 6h-164z" />
    <glyph glyph-name="Q" unicode="Q" horiz-adv-x="1744" 
d="M1735 246v-246h-879q-170 0 -314 51t-249 145t-164 234.5t-59 312.5q0 161 60.5 300.5t165 236.5t246.5 152t302 55t302.5 -55.5t246.5 -152.5t164.5 -236.5t60.5 -299.5q0 -106 -30 -199.5t-96.5 -172t-162.5 -121.5v-4h406zM401 743q0 -187 129.5 -317.5t313.5 -130.5
q183 0 312.5 130.5t129.5 317.5t-129.5 318t-312.5 131t-313 -131t-130 -318z" />
    <glyph glyph-name="R" unicode="R" horiz-adv-x="1327" 
d="M147 0v1450h562q93 0 171 -13t149 -45t120 -81t77.5 -125.5t28.5 -175.5q0 -156 -81.5 -263.5t-231.5 -134.5l369 -612h-383l-303 580h-158v-580h-320zM467 1180v-330h188q32 0 52.5 0.5t51.5 4t51.5 9.5t44 18t37 29t23 42.5t9.5 58.5q0 52 -21.5 87t-60 51.5t-77.5 23
t-89 6.5h-209z" />
    <glyph glyph-name="S" unicode="S" horiz-adv-x="1175" 
d="M1083 1335l-219 -239q-36 46 -101.5 71t-129.5 25q-50 0 -96.5 -14t-82.5 -49.5t-36 -86.5q0 -53 37 -89t95.5 -57.5t129.5 -41t142.5 -48t130 -70.5t95.5 -117.5t37 -178.5q0 -118 -45 -210.5t-123 -150t-177.5 -87t-213.5 -29.5q-291 0 -487 182l227 250
q49 -64 124 -100.5t155 -36.5q86 0 153.5 40t67.5 112q0 42 -23.5 74.5t-62.5 54t-90 39.5t-107.5 35.5t-113 38t-107.5 52t-90 71.5t-62.5 102t-23.5 139q0 112 46 203.5t124 148.5t176.5 88t206.5 31q272 0 444 -152z" />
    <glyph glyph-name="T" unicode="T" horiz-adv-x="1175" 
d="M428 0v1167h-414v283h1147v-283h-413v-1167h-320z" />
    <glyph glyph-name="U" unicode="U" horiz-adv-x="1517" 
d="M1370 1450v-891q0 -173 -67.5 -306t-207.5 -211.5t-335 -78.5q-148 0 -265.5 45t-193 125t-115 188.5t-39.5 237.5v891h320v-879q0 -134 83 -223.5t210 -89.5q126 0 208.5 89.5t82.5 223.5v879h319z" />
    <glyph glyph-name="V" unicode="V" horiz-adv-x="1441" 
d="M584 0l-580 1450h365l358 -950h4l365 950h342l-598 -1450h-256z" />
    <glyph glyph-name="W" unicode="W" horiz-adv-x="2048" 
d="M426 0l-430 1450h348l231 -930h5l303 930h297l301 -954h4l244 954h323l-424 -1450h-285l-319 1004h-4l-320 -1004h-274z" />
    <glyph glyph-name="X" unicode="X" horiz-adv-x="1478" 
d="M0 0l508 758l-479 692h401l309 -508l297 508h387l-469 -686l525 -764h-402l-354 584l-344 -584h-379z" />
    <glyph glyph-name="Y" unicode="Y" horiz-adv-x="1327" 
d="M504 0v618l-545 832h397l308 -543l325 543h379l-545 -832v-618h-319z" />
    <glyph glyph-name="Z" unicode="Z" horiz-adv-x="1290" 
d="M72 0v295l735 872h-709v283h1096v-283l-721 -872h746v-295h-1147z" />
    <glyph glyph-name="bracketleft" unicode="[" horiz-adv-x="606" 
d="M565 1499v-184h-184v-1450h184v-184h-430v1818h430z" />
    <glyph glyph-name="backslash" unicode="\" horiz-adv-x="833" 
d="M840 -37l-232 -72l-614 1596l233 72z" />
    <glyph glyph-name="bracketright" unicode="]" horiz-adv-x="606" 
d="M41 -319v184h184v1450h-184v184h430v-1818h-430z" />
    <glyph glyph-name="asciicircum" unicode="^" horiz-adv-x="1363" 
d="M164 702l368 748h299l369 -748h-291l-227 488l-229 -488h-289z" />
    <glyph glyph-name="underscore" unicode="_" horiz-adv-x="1024" 
d="M1024 -256h-1024v102h1024v-102z" />
    <glyph glyph-name="grave" unicode="`" 
d="M268 1450l207 -295h-270l-355 295h418z" />
    <glyph glyph-name="a" unicode="a" horiz-adv-x="1099" 
d="M733 0v125h-4q-49 -76 -132.5 -113t-182.5 -37q-148 0 -251.5 82t-103.5 226q0 56 15.5 102.5t39.5 80.5t63.5 60.5t77.5 44t92.5 30t96 18.5t101.5 9.5t96.5 4t91.5 0.5q0 80 -57 129t-139 49q-144 0 -250 -119l-164 168q83 78 198.5 119t239.5 41q132 0 221.5 -32.5
t140.5 -101t72 -159.5t21 -221v-506h-283zM733 436h-76q-303 0 -303 -143q0 -52 44.5 -80.5t101.5 -28.5q97 0 165 49.5t68 137.5v65z" />
    <glyph glyph-name="b" unicode="b" horiz-adv-x="1290" 
d="M137 0v1548h307v-659h5q96 131 315 131q103 0 190 -44t144 -118t89 -169.5t32 -199.5q0 -227 -135 -370.5t-355 -143.5q-97 0 -181 47.5t-124 108.5h-4v-131h-283zM420 498q0 -114 66 -183t180 -69t179.5 69t65.5 183t-65.5 183t-179.5 69t-180 -69t-66 -183z" />
    <glyph glyph-name="c" unicode="c" horiz-adv-x="987" 
d="M985 887l-203 -213q-24 34 -64.5 55t-86.5 21q-114 0 -180 -69t-66 -183t66 -183t180 -69q86 0 151 76l203 -213q-67 -69 -162 -101.5t-192 -32.5q-154 0 -279 64t-199.5 184t-74.5 275t74.5 275t199.5 183.5t279 63.5q97 0 192 -32t162 -101z" />
    <glyph glyph-name="d" unicode="d" horiz-adv-x="1290" 
d="M1153 1548v-1548h-283v131h-4q-40 -61 -124 -108.5t-181 -47.5q-220 0 -354.5 143.5t-134.5 370.5q0 140 53.5 260t158.5 195.5t242 75.5q220 0 316 -131h4v659h307zM870 498q0 114 -65.5 183t-179.5 69t-180 -69t-66 -183t66 -183t180 -69t179.5 69t65.5 183z" />
    <glyph glyph-name="e" unicode="e" horiz-adv-x="1175" 
d="M836 330l215 -158q-73 -93 -185.5 -145t-234.5 -52q-154 0 -279 64t-199.5 184t-74.5 275t74.5 275t199.5 183.5t279 63.5q215 0 341 -142t126 -380v-97h-713q19 -88 80.5 -140t150.5 -52q132 0 220 121zM385 610h406q2 78 -52.5 133.5t-136.5 55.5q-96 0 -153.5 -55.5
t-63.5 -133.5z" />
    <glyph glyph-name="f" unicode="f" horiz-adv-x="757" 
d="M215 0v750h-203v245h203v176q0 71 8 125.5t33 109t66.5 89.5t113 56.5t168.5 21.5q103 0 180 -19l-14 -260q-61 21 -100 21q-78 0 -113 -34t-35 -128v-158h228v-245h-228v-750h-307z" />
    <glyph glyph-name="g" unicode="g" horiz-adv-x="1290" 
d="M1153 995v-911q0 -283 -144 -429.5t-431 -146.5q-318 0 -500 146l170 254q152 -129 323 -129q135 0 205 67t70 177v96h-4q-49 -67 -126 -99t-155 -32q-220 0 -354.5 143.5t-134.5 370.5q0 79 19.5 155t59 141.5t93 115t126.5 78t156 28.5q120 0 209.5 -47t130.5 -109h4
v131h283zM379 504q0 -98 71.5 -172t174.5 -74q102 0 173.5 73.5t71.5 172.5t-71.5 172.5t-173.5 73.5q-103 0 -174.5 -74t-71.5 -172z" />
    <glyph glyph-name="h" unicode="h" horiz-adv-x="1175" 
d="M109 1548h307v-688h4q24 65 98.5 112.5t179.5 47.5q91 0 157.5 -24t107 -64.5t64 -103t32 -128t8.5 -151.5v-549h-307v487q0 38 -1 60.5t-5 58t-14.5 57t-27.5 44t-45.5 33t-66.5 10.5q-57 0 -95.5 -20.5t-57 -59t-25 -79t-6.5 -95.5v-496h-307v1548z" />
    <glyph glyph-name="i" unicode="i" 
d="M113 0v995h307v-995h-307zM88 1309q0 73 52 125.5t126 52.5t126 -52.5t52 -125.5q0 -74 -52.5 -126.5t-125.5 -52.5t-125.5 52.5t-52.5 126.5z" />
    <glyph glyph-name="j" unicode="j" 
d="M420 995v-1069q0 -203 -84 -310.5t-285 -107.5q-88 0 -143 17l16 272q38 -18 80 -18q37 0 61 19t33.5 54.5t12 62t2.5 65.5v1015h307zM88 1309q0 73 52 125.5t126 52.5t126 -52.5t52 -125.5q0 -74 -52.5 -126.5t-125.5 -52.5t-125.5 52.5t-52.5 126.5z" />
    <glyph glyph-name="k" unicode="k" horiz-adv-x="1138" 
d="M109 0v1548h307v-946l340 393h377l-396 -448l406 -547h-387l-336 504h-4v-504h-307z" />
    <glyph glyph-name="l" unicode="l" 
d="M113 0v1548h307v-1548h-307z" />
    <glyph glyph-name="m" unicode="m" horiz-adv-x="1781" 
d="M109 0v995h294v-135h5q35 66 110.5 113t179.5 47q108 0 188.5 -45t119.5 -133q53 94 128.5 136t186.5 42q352 0 352 -432v-588h-307v580q0 76 -32.5 123t-102.5 47q-99 0 -143 -61.5t-44 -162.5v-526h-307v526q0 30 -0.5 43.5t-3.5 46.5t-11.5 51t-23 40t-39.5 32.5
t-59 10.5q-57 0 -95.5 -20.5t-57 -59t-25 -79t-6.5 -95.5v-496h-307z" />
    <glyph glyph-name="n" unicode="n" horiz-adv-x="1175" 
d="M109 0v995h294v-135h5q35 66 110.5 113t179.5 47q91 0 157.5 -24t107 -64.5t64 -103t32 -128t8.5 -151.5v-549h-307v487q0 38 -1 60.5t-5 58t-14.5 57t-27.5 44t-45.5 33t-66.5 10.5q-57 0 -95.5 -20.5t-57 -59t-25 -79t-6.5 -95.5v-496h-307z" />
    <glyph glyph-name="o" unicode="o" horiz-adv-x="1249" 
d="M72 498q0 155 74.5 275t199.5 183.5t279 63.5t279 -63.5t199.5 -183.5t74.5 -275t-74.5 -275t-199.5 -184t-279 -64t-279 64t-199.5 184t-74.5 275zM379 498q0 -114 66 -183t180 -69t179.5 69t65.5 183t-65.5 183t-179.5 69t-180 -69t-66 -183z" />
    <glyph glyph-name="p" unicode="p" horiz-adv-x="1290" 
d="M137 -467v1462h283v-131h4q40 61 124 108.5t181 47.5q220 0 355 -143.5t135 -370.5q0 -104 -32 -199.5t-89 -169.5t-144 -118t-190 -44q-219 0 -315 131h-5v-573h-307zM420 498q0 -114 66 -183t180 -69t179.5 69t65.5 183t-65.5 183t-179.5 69t-180 -69t-66 -183z" />
    <glyph glyph-name="q" unicode="q" horiz-adv-x="1290" 
d="M1153 995v-1462h-307v573h-4q-96 -131 -316 -131q-137 0 -242 75.5t-158.5 195.5t-53.5 260q0 227 134.5 370.5t354.5 143.5q97 0 181 -47.5t124 -108.5h4v131h283zM870 498q0 114 -65.5 183t-179.5 69t-180 -69t-66 -183t66 -183t180 -69t179.5 69t65.5 183z" />
    <glyph glyph-name="r" unicode="r" horiz-adv-x="833" 
d="M109 0v995h307v-159h4q51 93 119.5 138.5t167.5 45.5q66 0 102 -10v-281q-75 21 -131 21q-68 0 -116.5 -16.5t-76.5 -43t-43.5 -71.5t-20.5 -91t-5 -112v-416h-307z" />
    <glyph glyph-name="s" unicode="s" horiz-adv-x="948" 
d="M860 889l-188 -187q-69 84 -178 84q-44 0 -78.5 -20t-34.5 -61q0 -29 28.5 -48t74.5 -30t101 -22t110 -31.5t101 -50.5t74.5 -86.5t28.5 -133.5q0 -73 -27.5 -131t-72.5 -94.5t-106 -60t-123 -33t-130 -9.5q-114 0 -218 33t-173 103l187 206q88 -108 217 -108
q59 0 99 17.5t40 54.5q0 28 -22.5 47.5t-58.5 29.5t-82.5 21t-95.5 21t-95.5 32t-82.5 51.5t-58.5 81t-22.5 119.5q0 84 35.5 150t95.5 105.5t133 60t154 20.5q245 0 368 -131z" />
    <glyph glyph-name="t" unicode="t" horiz-adv-x="833" 
d="M786 995v-245h-270v-332q0 -46 4.5 -74.5t18.5 -56.5t44.5 -41t78.5 -13q93 0 124 29v-256q-84 -31 -215 -31q-79 0 -143.5 17t-114 52t-77 94t-27.5 138v474h-197v245h197v295h307v-295h270z" />
    <glyph glyph-name="u" unicode="u" horiz-adv-x="1175" 
d="M1067 995v-995h-295v135h-4q-35 -66 -111 -113t-180 -47q-91 0 -157.5 24t-106.5 64t-64 103t-32 128.5t-8 151.5v549h307v-487q0 -33 0.5 -51.5t3.5 -50t9 -50.5t17.5 -42.5t28 -36.5t42 -22t58.5 -9q46 0 80.5 14.5t54 37.5t31.5 57.5t15.5 68t3.5 76.5v495h307z" />
    <glyph glyph-name="v" unicode="v" horiz-adv-x="1138" 
d="M416 0l-412 995h332l252 -676h4l233 676h310l-394 -995h-325z" />
    <glyph glyph-name="w" unicode="w" horiz-adv-x="1705" 
d="M354 0l-364 995h327l203 -624h4l170 624h336l184 -624h5l186 624h311l-354 -995h-303l-207 662h-4l-184 -662h-310z" />
    <glyph glyph-name="x" unicode="x" horiz-adv-x="1138" 
d="M-16 0l393 532l-332 463h363l176 -270l170 270h342l-324 -463l383 -532h-362l-218 332l-233 -332h-358z" />
    <glyph glyph-name="y" unicode="y" horiz-adv-x="1138" 
d="M1133 995l-451 -1157q-31 -80 -48 -117.5t-51 -88t-72.5 -71.5t-101.5 -37t-149 -16q-119 0 -229 37l41 252q70 -30 143 -30q41 0 71 8t48.5 18.5t35.5 36t25.5 44.5t24.5 60l22 58l-436 1003h332l256 -657h4l219 657h316z" />
    <glyph glyph-name="z" unicode="z" horiz-adv-x="1024" 
d="M70 0v307l516 443h-504v245h860v-295l-541 -454h553v-246h-884z" />
    <glyph glyph-name="braceleft" unicode="{" horiz-adv-x="757" 
d="M729 -86v-233h-215q-117 0 -190.5 74t-73.5 225v352q0 36 -18.5 63t-44 41.5t-59 23t-56.5 11t-43 2.5v234q20 0 43 2.5t56.5 11t59 23t44 41.5t18.5 63v354q0 152 71.5 224.5t192.5 72.5h215v-233h-100q-44 0 -73 -12t-41 -34t-15.5 -40.5t-3.5 -44.5v-330
q-1 -54 -15 -94t-32.5 -61t-50 -34t-52.5 -17t-55 -7v-4q33 -2 55 -5.5t53 -16.5t49.5 -34t32.5 -60.5t15 -94.5v-332q0 -26 3.5 -44.5t15.5 -40.5t41 -34t73 -12h100z" />
    <glyph glyph-name="bar" unicode="|" horiz-adv-x="454" 
d="M98 1536h258v-2048h-258v2048z" />
    <glyph glyph-name="braceright" unicode="}" horiz-adv-x="757" 
d="M29 1266v233h221q113 0 185.5 -74t72.5 -225v-352q0 -36 18 -63t43 -41.5t58 -23t56.5 -11t45.5 -2.5v-234q-22 0 -45.5 -2.5t-56.5 -11t-58 -23t-43 -41.5t-18 -63v-355q0 -152 -71.5 -224t-192.5 -72h-215v233h100q44 0 73 12t41 34t15.5 40.5t3.5 44.5v330q1 54 15 94
t32.5 61t50 34t52.5 17t55 7v4q-33 2 -55 5.5t-53 16.5t-49.5 34t-32.5 60.5t-15 94.5v332q0 26 -3.5 44.5t-15.5 40.5t-41 34t-73 12h-100z" />
    <glyph glyph-name="asciitilde" unicode="~" horiz-adv-x="1363" 
d="M1081 819l74 -221q-92 -176 -256 -176q-82 0 -227 65q-14 6 -44.5 20t-47.5 21t-40.5 16t-42 13t-34.5 4q-36 0 -70.5 -22t-52.5 -43t-48 -62l-9 -12l-74 221q92 176 256 176q82 0 227 -65q14 -6 44.5 -20t47.5 -21t40.5 -16t42 -13t34.5 -4q36 0 70.5 22t52.5 43t48 62z
" />
    <glyph glyph-name="uni00A0" unicode="&#xa0;" horiz-adv-x="606" 
 />
    <glyph glyph-name="exclamdown" unicode="&#xa1;" horiz-adv-x="909" 
d="M301 -455v971h307v-971h-307zM643 819q0 -78 -55 -133t-133 -55t-133.5 55t-55.5 133t55.5 133.5t133.5 55.5t133 -55.5t55 -133.5z" />
    <glyph glyph-name="cent" unicode="&#xa2;" horiz-adv-x="1212" 
d="M635 -166v141q-215 12 -347 159.5t-132 363.5q0 217 129.5 356.5t349.5 165.5v135h123v-135q105 0 189 -30t163 -97l-197 -209q-75 78 -155 78v-529q79 0 170 89l186 -220q-69 -68 -168.5 -97.5t-187.5 -29.5v-141h-123zM635 233v529q-91 -18 -137.5 -89.5t-46.5 -172.5
q0 -98 46 -168.5t138 -98.5z" />
    <glyph glyph-name="sterling" unicode="&#xa3;" horiz-adv-x="1212" 
d="M98 0v233h197v406h-197v209h197v145q0 93 33.5 178.5t95.5 153.5t160.5 109t218.5 41q273 0 428 -140l-205 -219q-40 40 -92 64t-94 24q-65 0 -113.5 -21.5t-74.5 -59.5t-38 -81t-12 -94v-100h320v-209h-320v-406h518v-233h-1022z" />
    <glyph glyph-name="currency" unicode="&#xa4;" horiz-adv-x="1212" 
d="M74 313l100 101q-100 140 -100 311t100 311l-100 101l123 120l100 -98q138 98 309 98t309 -98l101 98l123 -120l-101 -101q101 -138 101 -311t-101 -311l101 -101l-123 -120l-101 98q-138 -98 -309 -98t-309 98l-100 -98zM344 725q0 -115 76.5 -194.5t185.5 -79.5
t185.5 79.5t76.5 194.5t-76.5 194.5t-185.5 79.5t-185.5 -79.5t-76.5 -194.5z" />
    <glyph glyph-name="yen" unicode="&#xa5;" horiz-adv-x="1212" 
d="M446 0v324h-346v196h346v98l-24 41h-322v197h205l-379 594h373l307 -541l307 541h373l-379 -594h205v-197h-321l-25 -41v-98h346v-196h-346v-324h-320z" />
    <glyph glyph-name="brokenbar" unicode="&#xa6;" horiz-adv-x="454" 
d="M98 1382h258v-716h-258v716zM98 358h258v-716h-258v716z" />
    <glyph glyph-name="section" unicode="&#xa7;" horiz-adv-x="1212" 
d="M1059 1264l-258 -148q-21 57 -73.5 91t-115.5 34q-54 0 -93.5 -28t-39.5 -80q0 -36 27.5 -66.5t72.5 -53t102.5 -47.5t117 -47.5t117 -56t102.5 -71t72.5 -93.5t27.5 -123q0 -83 -48.5 -155.5t-123.5 -110.5q53 -42 83 -107t30 -136q0 -77 -31.5 -141.5t-82.5 -106.5
t-117.5 -71.5t-135 -42.5t-137.5 -13q-357 0 -477 258l262 129q18 -69 82.5 -105t140.5 -36q27 0 53.5 5t52.5 16t42 33t16 52q0 39 -34 70.5t-88.5 55.5t-120 49t-131 58t-120 74t-88.5 105.5t-34 144.5q0 193 178 303q-61 40 -95 101.5t-34 134.5q0 86 39.5 155t104 109.5
t140.5 62t156 21.5q70 0 134.5 -11t128 -35.5t115 -69.5t81.5 -107zM557 489l209 -96q70 42 70 125q0 89 -134 148l-237 112q-72 -41 -72 -121q0 -33 13 -59.5t36.5 -45t48 -31.5t54.5 -27q8 -3 12 -5z" />
    <glyph glyph-name="dieresis" unicode="&#xa8;" 
d="M51 1143q-71 0 -120.5 52.5t-49.5 123.5q0 67 49.5 117.5t116.5 50.5q72 0 125 -48t53 -120q0 -74 -50 -125t-124 -51zM477 1143q-71 0 -120.5 52.5t-49.5 123.5q0 67 49.5 117.5t116.5 50.5q72 0 125 -48t53 -120q0 -74 -50 -125t-124 -51z" />
    <glyph glyph-name="copyright" unicode="&#xa9;" horiz-adv-x="1638" 
d="M1012 614h192q-21 -153 -122.5 -237t-241.5 -84q-188 0 -298 124t-110 314q0 194 106 312t298 118q144 0 245 -77.5t123 -225.5h-192q-13 62 -56 90.5t-104 28.5q-98 0 -148.5 -64.5t-50.5 -177.5q0 -115 53 -186.5t142 -71.5q70 0 115 33t49 104zM57 725q0 155 60.5 296
t162.5 243t243 162.5t296 60.5t296 -60.5t243 -162.5t162.5 -243t60.5 -296t-60.5 -296t-162.5 -243t-243 -162.5t-296 -60.5t-296 60.5t-243 162.5t-162.5 243t-60.5 296zM266 725q0 -156 74 -289t201.5 -211t277.5 -78t277.5 78t201.5 211t74 289t-74 289t-201.5 211
t-277.5 78t-277.5 -78t-201.5 -211t-74 -289z" />
    <glyph glyph-name="ordfeminine" unicode="&#xaa;" horiz-adv-x="714" 
d="M471 883v75h-4q-21 -45 -72.5 -66.5t-118.5 -21.5q-96 0 -162.5 49t-66.5 134q0 43 16 77t40.5 56t62.5 38t72.5 24.5t81.5 13t78 5.5t73 1q0 38 -32 67t-83 29q-87 0 -161 -74l-107 101q54 46 129.5 71t155.5 25q86 0 144 -19.5t91 -60t46.5 -93.5t13.5 -128v-303h-197z
M483 1106v39h-37q-190 0 -190 -84q0 -55 88 -55q58 0 98.5 31.5t40.5 68.5z" />
    <glyph glyph-name="guillemotleft" unicode="&#xab;" horiz-adv-x="1101" 
d="M549 864l-238 -354l238 -354l-187 -125l-325 479l325 479zM1044 864l-237 -354l237 -354l-186 -125l-326 479l326 479z" />
    <glyph glyph-name="logicalnot" unicode="&#xac;" horiz-adv-x="1363" 
d="M985 291v397h-864v258h1122v-655h-258z" />
    <glyph glyph-name="uni00AD" unicode="&#xad;" horiz-adv-x="606" 
d="M555 633v-246h-504v246h504z" />
    <glyph glyph-name="registered" unicode="&#xae;" horiz-adv-x="1638" 
d="M526 334v799h283q340 0 340 -259q0 -199 -186 -223l204 -317h-215l-182 307h-35v-307h-209zM733 973v-172h84q19 0 32 1t32 5.5t30.5 13t20 25.5t8.5 41q0 29 -11.5 47.5t-32.5 26.5t-38 10t-41 2h-84zM57 725q0 155 60.5 296t162.5 243t243 162.5t296 60.5t296 -60.5
t243 -162.5t162.5 -243t60.5 -296t-60.5 -296t-162.5 -243t-243 -162.5t-296 -60.5t-296 60.5t-243 162.5t-162.5 243t-60.5 296zM266 725q0 -156 74 -289t201.5 -211t277.5 -78t277.5 78t201.5 211t74 289t-74 289t-201.5 211t-277.5 78t-277.5 -78t-201.5 -211t-74 -289z
" />
    <glyph glyph-name="macron" unicode="&#xaf;" 
d="M614 1407v-197h-696v197h696z" />
    <glyph glyph-name="degree" unicode="&#xb0;" horiz-adv-x="819" 
d="M410 942q75 0 127.5 52.5t52.5 127.5t-52.5 128t-127.5 53t-128 -53t-53 -128t53 -127.5t128 -52.5zM410 770q-146 0 -249.5 103t-103.5 249t103.5 249.5t249.5 103.5t249 -103.5t103 -249.5t-103 -249t-249 -103z" />
    <glyph glyph-name="plusminus" unicode="&#xb1;" horiz-adv-x="1363" 
d="M121 662v258h432v262h258v-262h432v-258h-432v-263h-258v263h-432zM121 59v258h1122v-258h-1122z" />
    <glyph glyph-name="twosuperior" unicode="&#xb2;" horiz-adv-x="788" 
d="M49 592v182l381 324q59 50 74 72q14 21 14 40q0 40 -34.5 60t-86.5 20q-57 0 -94.5 -31.5t-40.5 -78.5l-209 12q10 141 105.5 212t249.5 71q147 0 239 -65t92 -181q0 -68 -16.5 -113t-38.5 -67.5t-70 -59.5l-286 -221v-4h411v-172h-690z" />
    <glyph glyph-name="threesuperior" unicode="&#xb3;" horiz-adv-x="788" 
d="M293 958v172h69q152 0 152 93q0 32 -31 49.5t-84 17.5q-50 0 -85.5 -24t-45.5 -66l-225 41q61 234 356 234q142 0 239 -61t97 -173q0 -74 -44.5 -125.5t-125.5 -64.5v-4q87 -10 138 -68.5t51 -136.5q0 -126 -103 -194t-258 -68q-301 0 -358 241l223 45q23 -102 135 -102
q139 0 139 98q0 23 -7 40t-21.5 27t-29.5 16t-40 9t-42.5 3.5t-47.5 0.5h-51z" />
    <glyph glyph-name="acute" unicode="&#xb4;" 
d="M61 1155l207 295h418l-354 -295h-271z" />
    <glyph glyph-name="mu" unicode="&#xb5;" horiz-adv-x="1175" 
d="M1067 995v-995h-295v135h-4q-35 -66 -111 -113t-180 -47q-29 0 -61 7v-449h-307v1462h307v-487q0 -33 0.5 -51.5t3.5 -50t9 -50.5t17.5 -42.5t28 -36.5t42 -22t58.5 -9q46 0 80.5 14.5t54 37.5t31.5 57.5t15.5 68t3.5 76.5v495h307z" />
    <glyph glyph-name="paragraph" unicode="&#xb6;" horiz-adv-x="1269" 
d="M483 -272v1007q-221 0 -338.5 92t-117.5 258q0 86 25.5 151t69 105t109 65t137 34.5t162.5 9.5h619v-1722h-221v1525h-223v-1525h-222z" />
    <glyph glyph-name="periodcentered" unicode="&#xb7;" horiz-adv-x="606" 
d="M115 580q0 78 55 133t133 55t133.5 -55t55.5 -133t-55.5 -133.5t-133.5 -55.5t-133 55.5t-55 133.5z" />
    <glyph glyph-name="cedilla" unicode="&#xb8;" 
d="M344 0l-84 -123q53 0 92.5 -5.5t80.5 -22t63 -52.5t22 -90q0 -53 -29.5 -94t-75 -62.5t-91.5 -32t-89 -10.5q-128 0 -256 62l52 96q96 -35 157 -35q136 0 136 66q0 33 -33 51.5t-70 18.5q-31 0 -74 -17l-65 60l127 190h137z" />
    <glyph glyph-name="onesuperior" unicode="&#xb9;" horiz-adv-x="788" 
d="M375 592v649l-182 -154l-119 136l325 239h197v-870h-221z" />
    <glyph glyph-name="ordmasculine" unicode="&#xba;" horiz-adv-x="813" 
d="M47 1178q0 137 103 223t256 86q154 0 257 -86t103 -223q0 -142 -102 -225t-258 -83t-257.5 83t-101.5 225zM256 1178q2 -58 42.5 -97t107.5 -39t109 39.5t42 96.5q0 58 -41.5 97.5t-109.5 39.5q-67 0 -108.5 -39.5t-41.5 -97.5z" />
    <glyph glyph-name="guillemotright" unicode="&#xbb;" horiz-adv-x="1101" 
d="M553 156l238 354l-238 354l186 125l326 -479l-326 -479zM57 156l238 354l-238 354l187 125l325 -479l-325 -479z" />
    <glyph glyph-name="onequarter" unicode="&#xbc;" horiz-adv-x="1820" 
d="M1466 0v174h-428v160l408 536h242v-524h116v-172h-116v-174h-222zM1466 346v279h-4l-202 -279h206zM317 592v649l-182 -154l-119 136l326 239h197v-870h-222zM387 23l830 1493l172 -97l-846 -1485z" />
    <glyph glyph-name="onehalf" unicode="&#xbd;" horiz-adv-x="1820" 
d="M317 592v649l-182 -154l-119 136l326 239h197v-870h-222zM1114 0v182l381 324q59 50 74 72q14 21 14 40q0 40 -34.5 60t-86.5 20q-57 0 -94.5 -31.5t-40.5 -78.5l-209 12q10 141 105.5 212t249.5 71q147 0 239 -65t92 -181q0 -68 -16.5 -113t-38.5 -67.5t-70 -59.5
l-286 -221v-4h411v-172h-690zM387 23l830 1493l172 -97l-846 -1485z" />
    <glyph glyph-name="threequarters" unicode="&#xbe;" horiz-adv-x="1820" 
d="M1475 0v174h-428v160l407 536h242v-524h116v-172h-116v-174h-221zM1475 346v279h-5l-202 -279h207zM266 958v172h70q69 0 110 20t41 73q0 32 -30.5 49.5t-83.5 17.5q-50 0 -85.5 -24t-45.5 -66l-224 41q58 234 355 234q142 0 239 -61t97 -173q0 -74 -44.5 -125.5
t-125.5 -64.5v-4q86 -10 137 -68.5t51 -136.5q0 -126 -102.5 -194t-257.5 -68q-302 0 -359 241l223 45q23 -102 136 -102q139 0 139 98q0 23 -7 40t-22 27t-29.5 16t-40 9t-43 3.5t-47.5 0.5h-51zM436 23l830 1493l172 -97l-846 -1485z" />
    <glyph glyph-name="questiondown" unicode="&#xbf;" horiz-adv-x="1138" 
d="M696 516v-90q0 -62 -16.5 -104.5t-54.5 -79.5q-35 -33 -84.5 -77t-75 -68t-53 -54.5t-39 -56t-11.5 -52.5q0 -66 41.5 -104.5t106.5 -38.5q91 0 144 51.5t59 130.5l315 -20q-21 -214 -158 -329.5t-354 -115.5q-128 0 -230.5 45t-166.5 138t-64 221q0 117 54 202t200 201
q80 62 80 142v59h307zM731 819q0 -78 -55 -133t-133 -55t-133.5 55t-55.5 133t55.5 133.5t133.5 55.5t133 -55.5t55 -133.5z" />
    <glyph glyph-name="Agrave" unicode="&#xc0;" horiz-adv-x="1517" 
d="M-2 0l627 1450h264l631 -1450h-361l-125 307h-563l-121 -307h-352zM926 578l-178 450l-177 -450h355zM762 1849l207 -295h-271l-354 295h418z" />
    <glyph glyph-name="Aacute" unicode="&#xc1;" horiz-adv-x="1517" 
d="M-2 0l627 1450h264l631 -1450h-361l-125 307h-563l-121 -307h-352zM926 578l-178 450l-177 -450h355zM555 1554l207 295h418l-355 -295h-270z" />
    <glyph glyph-name="Acircumflex" unicode="&#xc2;" horiz-adv-x="1517" 
d="M-2 0l627 1450h264l631 -1450h-361l-125 307h-563l-121 -307h-352zM926 578l-178 450l-177 -450h355zM1167 1554h-282l-129 160l-127 -160h-277l244 295h334z" />
    <glyph glyph-name="Atilde" unicode="&#xc3;" horiz-adv-x="1517" 
d="M-2 0l627 1450h264l631 -1450h-361l-125 307h-563l-121 -307h-352zM926 578l-178 450l-177 -450h355zM520 1567h-162q12 73 42.5 134.5t87.5 104.5t130 43q78 0 179 -43q79 -30 114 -30q58 0 90 73h160q-23 -131 -84.5 -206.5t-181.5 -75.5q-59 0 -160 43q-88 43 -129 43
q-32 0 -53.5 -25.5t-32.5 -60.5z" />
    <glyph glyph-name="Adieresis" unicode="&#xc4;" horiz-adv-x="1517" 
d="M-2 0l627 1450h264l631 -1450h-361l-125 307h-563l-121 -307h-352zM926 578l-178 450l-177 -450h355zM545 1542q-71 0 -120.5 52.5t-49.5 123.5q0 67 49.5 117.5t116.5 50.5q72 0 125 -48t53 -120q0 -74 -50 -125t-124 -51zM971 1542q-71 0 -120.5 52.5t-49.5 123.5
q0 67 49.5 117.5t116.5 50.5q72 0 125 -48t53 -120q0 -74 -50 -125t-124 -51z" />
    <glyph glyph-name="Aring" unicode="&#xc5;" horiz-adv-x="1517" 
d="M-2 0l627 1450h264l631 -1450h-361l-125 307h-563l-121 -307h-352zM926 578l-178 450l-177 -450h355zM760 1497q-94 0 -161 66.5t-67 160.5t67 161t161 67t160.5 -67t66.5 -161t-66.5 -160.5t-160.5 -66.5zM655 1724q0 -43 31 -73.5t74 -30.5t73.5 30.5t30.5 73.5
t-30.5 74t-73.5 31t-74 -31t-31 -74z" />
    <glyph glyph-name="AE" unicode="&#xc6;" horiz-adv-x="2123" 
d="M1094 0v307h-539l-195 -307h-391l920 1450h1102v-295h-578v-270h529v-295h-529v-295h602v-295h-921zM1094 578v577h-35l-367 -577h402z" />
    <glyph glyph-name="Ccedilla" unicode="&#xc7;" horiz-adv-x="1402" 
d="M1341 1274l-245 -201q-99 119 -275 119q-182 0 -301 -132.5t-119 -334.5q0 -201 118 -334t292 -133q95 0 172 40.5t127 115.5l266 -199q-87 -124 -227.5 -188t-296.5 -64q-27 0 -39 2l-59 -88q53 0 92.5 -5.5t80.5 -22t63 -52.5t22 -90q0 -53 -29.5 -94t-75 -62.5
t-91.5 -32t-89 -10.5q-128 0 -256 62l51 96q96 -35 158 -35q135 0 135 66q0 33 -32.5 51.5t-69.5 18.5q-31 0 -74 -17l-66 60l111 167q-279 50 -446.5 249t-167.5 499q0 228 101 402.5t278 267t403 92.5q137 0 270 -51.5t219 -161.5z" />
    <glyph glyph-name="Egrave" unicode="&#xc8;" horiz-adv-x="1290" 
d="M160 0v1450h985v-295h-666v-270h629v-295h-629v-295h703v-295h-1022zM647 1849l207 -295h-270l-355 295h418z" />
    <glyph glyph-name="Eacute" unicode="&#xc9;" horiz-adv-x="1290" 
d="M160 0v1450h985v-295h-666v-270h629v-295h-629v-295h703v-295h-1022zM440 1554l207 295h418l-354 -295h-271z" />
    <glyph glyph-name="Ecircumflex" unicode="&#xca;" horiz-adv-x="1290" 
d="M160 0v1450h985v-295h-666v-270h629v-295h-629v-295h703v-295h-1022zM1053 1554h-283l-129 160l-127 -160h-276l243 295h334z" />
    <glyph glyph-name="Edieresis" unicode="&#xcb;" horiz-adv-x="1290" 
d="M160 0v1450h985v-295h-666v-270h629v-295h-629v-295h703v-295h-1022zM430 1542q-71 0 -120.5 52.5t-49.5 123.5q0 67 49.5 117.5t116.5 50.5q72 0 125 -48t53 -120q0 -74 -50 -125t-124 -51zM856 1542q-71 0 -120.5 52.5t-49.5 123.5q0 67 49.5 117.5t116.5 50.5
q72 0 125 -48t53 -120q0 -74 -50 -125t-124 -51z" />
    <glyph glyph-name="Igrave" unicode="&#xcc;" horiz-adv-x="606" 
d="M143 0v1450h320v-1450h-320zM305 1849l207 -295h-270l-355 295h418z" />
    <glyph glyph-name="Iacute" unicode="&#xcd;" horiz-adv-x="606" 
d="M143 0v1450h320v-1450h-320zM98 1554l207 295h418l-354 -295h-271z" />
    <glyph glyph-name="Icircumflex" unicode="&#xce;" horiz-adv-x="606" 
d="M143 0v1450h320v-1450h-320zM711 1554h-283l-129 160l-127 -160h-276l243 295h334z" />
    <glyph glyph-name="Idieresis" unicode="&#xcf;" horiz-adv-x="606" 
d="M143 0v1450h320v-1450h-320zM88 1542q-71 0 -120.5 52.5t-49.5 123.5q0 67 49.5 117.5t116.5 50.5q72 0 125 -48t53 -120q0 -74 -50 -125t-124 -51zM514 1542q-71 0 -120.5 52.5t-49.5 123.5q0 67 49.5 117.5t116.5 50.5q72 0 125 -48t53 -120q0 -74 -50 -125t-124 -51z
" />
    <glyph glyph-name="Eth" unicode="&#xd0;" horiz-adv-x="1554" 
d="M467 1155v-295h405v-209h-405v-356h166q92 0 168.5 14t142.5 46.5t111.5 83t71.5 126t26 172.5q0 104 -39.5 185t-108.5 131t-158 76t-192 26h-188zM147 0v651h-122v209h122v590h480q144 0 269 -24.5t234.5 -80t187.5 -138.5t122.5 -207t44.5 -279q0 -137 -43 -254.5
t-119.5 -202.5t-179 -145t-223 -89.5t-250.5 -29.5h-523z" />
    <glyph glyph-name="Ntilde" unicode="&#xd1;" horiz-adv-x="1669" 
d="M147 0v1450h435l616 -1008h4v1008h320v-1450h-418l-633 1032h-4v-1032h-320zM596 1567h-162q12 73 42.5 134.5t87.5 104.5t130 43q77 0 178 -43q79 -30 115 -30q58 0 90 73h160q-23 -131 -84.5 -206.5t-181.5 -75.5q-59 0 -160 43q-88 43 -129 43q-32 0 -53.5 -25.5
t-32.5 -60.5z" />
    <glyph glyph-name="Ograve" unicode="&#xd2;" horiz-adv-x="1703" 
d="M70 725q0 228 101 402.5t278 267t403 92.5t403 -92.5t278 -267t101 -402.5t-101 -402.5t-278 -267t-403 -92.5t-403 92.5t-278 267t-101 402.5zM401 725q0 -205 124.5 -336t326.5 -131t326.5 131t124.5 336t-124.5 336t-326.5 131t-326.5 -131t-124.5 -336zM854 1849
l207 -295h-270l-355 295h418z" />
    <glyph glyph-name="Oacute" unicode="&#xd3;" horiz-adv-x="1703" 
d="M70 725q0 228 101 402.5t278 267t403 92.5t403 -92.5t278 -267t101 -402.5t-101 -402.5t-278 -267t-403 -92.5t-403 92.5t-278 267t-101 402.5zM401 725q0 -205 124.5 -336t326.5 -131t326.5 131t124.5 336t-124.5 336t-326.5 131t-326.5 -131t-124.5 -336zM647 1554
l207 295h418l-354 -295h-271z" />
    <glyph glyph-name="Ocircumflex" unicode="&#xd4;" horiz-adv-x="1703" 
d="M70 725q0 228 101 402.5t278 267t403 92.5t403 -92.5t278 -267t101 -402.5t-101 -402.5t-278 -267t-403 -92.5t-403 92.5t-278 267t-101 402.5zM401 725q0 -205 124.5 -336t326.5 -131t326.5 131t124.5 336t-124.5 336t-326.5 131t-326.5 -131t-124.5 -336zM1260 1554
h-283l-129 160l-127 -160h-277l244 295h334z" />
    <glyph glyph-name="Otilde" unicode="&#xd5;" horiz-adv-x="1703" 
d="M70 725q0 228 101 402.5t278 267t403 92.5t403 -92.5t278 -267t101 -402.5t-101 -402.5t-278 -267t-403 -92.5t-403 92.5t-278 267t-101 402.5zM401 725q0 -205 124.5 -336t326.5 -131t326.5 131t124.5 336t-124.5 336t-326.5 131t-326.5 -131t-124.5 -336zM612 1567
h-161q12 73 42.5 134.5t87.5 104.5t130 43q77 0 178 -43q79 -30 115 -30q58 0 90 73h159q-23 -131 -84.5 -206.5t-181.5 -75.5q-59 0 -160 43q-88 43 -129 43q-32 0 -53.5 -25.5t-32.5 -60.5z" />
    <glyph glyph-name="Odieresis" unicode="&#xd6;" horiz-adv-x="1703" 
d="M70 725q0 228 101 402.5t278 267t403 92.5t403 -92.5t278 -267t101 -402.5t-101 -402.5t-278 -267t-403 -92.5t-403 92.5t-278 267t-101 402.5zM401 725q0 -205 124.5 -336t326.5 -131t326.5 131t124.5 336t-124.5 336t-326.5 131t-326.5 -131t-124.5 -336zM637 1542
q-71 0 -120.5 52.5t-49.5 123.5q0 67 49.5 117.5t116.5 50.5q72 0 125 -48t53 -120q0 -74 -50 -125t-124 -51zM1063 1542q-71 0 -120.5 52.5t-49.5 123.5q0 67 49.5 117.5t116.5 50.5q72 0 125 -48t53 -120q0 -74 -50 -125t-124 -51z" />
    <glyph glyph-name="multiply" unicode="&#xd7;" horiz-adv-x="1363" 
d="M131 973l191 194l362 -358l352 356l183 -176l-355 -368l369 -355l-189 -190l-360 360l-362 -362l-183 176l357 371z" />
    <glyph glyph-name="Oslash" unicode="&#xd8;" horiz-adv-x="1703" 
d="M70 -6l190 209q-190 206 -190 522q0 228 101 402.5t278 267t403 92.5q268 0 465 -131l188 205l113 -101l-184 -200q200 -206 200 -535q0 -228 -101 -402.5t-278 -267t-403 -92.5q-280 0 -477 139l-191 -206zM481 444l623 678q-109 70 -252 70q-202 0 -326.5 -131
t-124.5 -336q0 -159 80 -281zM1212 1018l-624 -682q111 -78 264 -78q202 0 326.5 131t124.5 336q0 172 -91 293z" />
    <glyph glyph-name="Ugrave" unicode="&#xd9;" horiz-adv-x="1517" 
d="M1370 1450v-891q0 -173 -67.5 -306t-207.5 -211.5t-335 -78.5q-148 0 -265.5 45t-193 125t-115 188.5t-39.5 237.5v891h320v-879q0 -134 83 -223.5t210 -89.5q126 0 208.5 89.5t82.5 223.5v879h319zM762 1849l207 -295h-271l-354 295h418z" />
    <glyph glyph-name="Uacute" unicode="&#xda;" horiz-adv-x="1517" 
d="M1370 1450v-891q0 -173 -67.5 -306t-207.5 -211.5t-335 -78.5q-148 0 -265.5 45t-193 125t-115 188.5t-39.5 237.5v891h320v-879q0 -134 83 -223.5t210 -89.5q126 0 208.5 89.5t82.5 223.5v879h319zM555 1554l207 295h418l-355 -295h-270z" />
    <glyph glyph-name="Ucircumflex" unicode="&#xdb;" horiz-adv-x="1517" 
d="M1370 1450v-891q0 -173 -67.5 -306t-207.5 -211.5t-335 -78.5q-148 0 -265.5 45t-193 125t-115 188.5t-39.5 237.5v891h320v-879q0 -134 83 -223.5t210 -89.5q126 0 208.5 89.5t82.5 223.5v879h319zM1167 1554h-282l-129 160l-127 -160h-277l244 295h334z" />
    <glyph glyph-name="Udieresis" unicode="&#xdc;" horiz-adv-x="1517" 
d="M1370 1450v-891q0 -173 -67.5 -306t-207.5 -211.5t-335 -78.5q-148 0 -265.5 45t-193 125t-115 188.5t-39.5 237.5v891h320v-879q0 -134 83 -223.5t210 -89.5q126 0 208.5 89.5t82.5 223.5v879h319zM545 1542q-71 0 -120.5 52.5t-49.5 123.5q0 67 49.5 117.5t116.5 50.5
q72 0 125 -48t53 -120q0 -74 -50 -125t-124 -51zM971 1542q-71 0 -120.5 52.5t-49.5 123.5q0 67 49.5 117.5t116.5 50.5q72 0 125 -48t53 -120q0 -74 -50 -125t-124 -51z" />
    <glyph glyph-name="Yacute" unicode="&#xdd;" horiz-adv-x="1327" 
d="M504 0v618l-545 832h397l308 -543l325 543h379l-545 -832v-618h-319zM459 1610l207 295h417l-354 -295h-270z" />
    <glyph glyph-name="Thorn" unicode="&#xde;" horiz-adv-x="1290" 
d="M147 0v1450h320v-258h219q551 0 551 -440q0 -445 -537 -445h-233v-307h-320zM467 922v-344h213q97 0 161 40.5t64 133.5q0 53 -24 89t-68 52.5t-86 22.5t-96 6h-164z" />
    <glyph glyph-name="germandbls" unicode="&#xdf;" horiz-adv-x="1290" 
d="M109 0v1051q0 522 524 522q71 0 138 -13.5t128 -43.5t107 -73t73 -106t27 -139q0 -243 -209 -328v-4q157 -31 238.5 -144.5t81.5 -277.5q0 -215 -136 -342t-352 -127q-92 0 -190 25v250q56 -17 100 -17q122 0 202.5 61.5t80.5 178.5q0 125 -76.5 187.5t-204.5 62.5h-41
v258h25q80 0 133 42.5t53 119.5q0 73 -55 116.5t-131 43.5q-94 0 -151.5 -54.5t-57.5 -146.5v-1102h-307z" />
    <glyph glyph-name="agrave" unicode="&#xe0;" horiz-adv-x="1099" 
d="M733 0v125h-4q-49 -76 -132.5 -113t-182.5 -37q-148 0 -251.5 82t-103.5 226q0 56 15.5 102.5t39.5 80.5t63.5 60.5t77.5 44t92.5 30t96 18.5t101.5 9.5t96.5 4t91.5 0.5q0 80 -57 129t-139 49q-144 0 -250 -119l-164 168q83 78 198.5 119t239.5 41q132 0 221.5 -32.5
t140.5 -101t72 -159.5t21 -221v-506h-283zM733 436h-76q-303 0 -303 -143q0 -52 44.5 -80.5t101.5 -28.5q97 0 165 49.5t68 137.5v65zM553 1450l207 -295h-271l-354 295h418z" />
    <glyph glyph-name="aacute" unicode="&#xe1;" horiz-adv-x="1099" 
d="M733 0v125h-4q-49 -76 -132.5 -113t-182.5 -37q-148 0 -251.5 82t-103.5 226q0 56 15.5 102.5t39.5 80.5t63.5 60.5t77.5 44t92.5 30t96 18.5t101.5 9.5t96.5 4t91.5 0.5q0 80 -57 129t-139 49q-144 0 -250 -119l-164 168q83 78 198.5 119t239.5 41q132 0 221.5 -32.5
t140.5 -101t72 -159.5t21 -221v-506h-283zM733 436h-76q-303 0 -303 -143q0 -52 44.5 -80.5t101.5 -28.5q97 0 165 49.5t68 137.5v65zM346 1155l207 295h418l-355 -295h-270z" />
    <glyph glyph-name="acircumflex" unicode="&#xe2;" horiz-adv-x="1099" 
d="M733 0v125h-4q-49 -76 -132.5 -113t-182.5 -37q-148 0 -251.5 82t-103.5 226q0 56 15.5 102.5t39.5 80.5t63.5 60.5t77.5 44t92.5 30t96 18.5t101.5 9.5t96.5 4t91.5 0.5q0 80 -57 129t-139 49q-144 0 -250 -119l-164 168q83 78 198.5 119t239.5 41q132 0 221.5 -32.5
t140.5 -101t72 -159.5t21 -221v-506h-283zM733 436h-76q-303 0 -303 -143q0 -52 44.5 -80.5t101.5 -28.5q97 0 165 49.5t68 137.5v65zM958 1155h-282l-129 160l-127 -160h-277l244 295h334z" />
    <glyph glyph-name="atilde" unicode="&#xe3;" horiz-adv-x="1099" 
d="M733 0v125h-4q-49 -76 -132.5 -113t-182.5 -37q-148 0 -251.5 82t-103.5 226q0 56 15.5 102.5t39.5 80.5t63.5 60.5t77.5 44t92.5 30t96 18.5t101.5 9.5t96.5 4t91.5 0.5q0 80 -57 129t-139 49q-144 0 -250 -119l-164 168q83 78 198.5 119t239.5 41q132 0 221.5 -32.5
t140.5 -101t72 -159.5t21 -221v-506h-283zM733 436h-76q-303 0 -303 -143q0 -52 44.5 -80.5t101.5 -28.5q97 0 165 49.5t68 137.5v65zM311 1167h-161q9 54 29 102.5t51.5 90t78 66t101.5 24.5q77 0 178 -43q4 -1 21 -8t24 -9.5t21 -6.5t25 -5.5t23 -1.5q59 0 91 74h159
q-23 -131 -84.5 -207t-181.5 -76q-59 0 -160 43q-88 43 -129 43q-32 0 -53.5 -25.5t-32.5 -60.5z" />
    <glyph glyph-name="adieresis" unicode="&#xe4;" horiz-adv-x="1099" 
d="M733 0v125h-4q-49 -76 -132.5 -113t-182.5 -37q-148 0 -251.5 82t-103.5 226q0 56 15.5 102.5t39.5 80.5t63.5 60.5t77.5 44t92.5 30t96 18.5t101.5 9.5t96.5 4t91.5 0.5q0 80 -57 129t-139 49q-144 0 -250 -119l-164 168q83 78 198.5 119t239.5 41q132 0 221.5 -32.5
t140.5 -101t72 -159.5t21 -221v-506h-283zM733 436h-76q-303 0 -303 -143q0 -52 44.5 -80.5t101.5 -28.5q97 0 165 49.5t68 137.5v65zM336 1143q-71 0 -120.5 52.5t-49.5 123.5q0 67 49.5 117.5t116.5 50.5q72 0 125 -48t53 -120q0 -74 -50 -125t-124 -51zM762 1143
q-71 0 -120.5 52.5t-49.5 123.5q0 67 49.5 117.5t116.5 50.5q72 0 125 -48t53 -120q0 -74 -50 -125t-124 -51z" />
    <glyph glyph-name="aring" unicode="&#xe5;" horiz-adv-x="1099" 
d="M733 0v125h-4q-49 -76 -132.5 -113t-182.5 -37q-148 0 -251.5 82t-103.5 226q0 56 15.5 102.5t39.5 80.5t63.5 60.5t77.5 44t92.5 30t96 18.5t101.5 9.5t96.5 4t91.5 0.5q0 80 -57 129t-139 49q-144 0 -250 -119l-164 168q83 78 198.5 119t239.5 41q132 0 221.5 -32.5
t140.5 -101t72 -159.5t21 -221v-506h-283zM733 436h-76q-303 0 -303 -143q0 -52 44.5 -80.5t101.5 -28.5q97 0 165 49.5t68 137.5v65zM551 1116q-94 0 -160.5 66.5t-66.5 160.5t66.5 161t160.5 67t160.5 -67t66.5 -161t-66.5 -160.5t-160.5 -66.5zM446 1343q0 -43 31 -73.5
t74 -30.5t73.5 30.5t30.5 73.5t-30.5 74t-73.5 31t-74 -31t-31 -74z" />
    <glyph glyph-name="ae" unicode="&#xe6;" horiz-adv-x="1744" 
d="M287 692l-164 168q83 78 198.5 119t239.5 41q200 0 324 -121q60 59 147.5 90t186.5 31q215 0 341 -142t126 -380v-97h-713q19 -88 80.5 -140t150.5 -52q131 0 219 121l215 -158q-73 -93 -185.5 -145t-233.5 -52q-285 0 -398 162q-117 -162 -407 -162q-148 0 -251.5 82
t-103.5 226q0 66 23.5 118.5t59 86t92 58t106 36.5t119.5 19t113.5 8t105.5 1h37q0 90 -48 145.5t-130 55.5q-144 0 -250 -119zM354 285q0 -101 158 -101q203 0 203 217h-37h-41.5t-48 -1.5t-55 -4.5t-52 -8t-50.5 -14t-39 -20.5t-28.5 -29t-9.5 -38.5zM973 610h405
q2 78 -52 133.5t-136 55.5q-96 0 -153.5 -55.5t-63.5 -133.5z" />
    <glyph glyph-name="ccedilla" unicode="&#xe7;" horiz-adv-x="987" 
d="M985 887l-203 -213q-24 34 -64.5 55t-86.5 21q-114 0 -180 -69t-66 -183t66 -183t180 -69q86 0 151 76l203 -213q-67 -69 -162 -101.5t-192 -32.5q-15 0 -19 2l-67 -100q53 0 92.5 -5.5t80.5 -22t63 -52.5t22 -90q0 -53 -29.5 -94t-75 -62.5t-91.5 -32t-89 -10.5
q-128 0 -256 62l51 96q96 -35 158 -35q135 0 135 66q0 33 -32.5 51.5t-69.5 18.5q-32 0 -74 -17l-65 60l122 184q-183 39 -296 174t-113 330q0 155 74.5 275t199.5 183.5t279 63.5q97 0 192 -32t162 -101z" />
    <glyph glyph-name="egrave" unicode="&#xe8;" horiz-adv-x="1175" 
d="M836 330l215 -158q-73 -93 -185.5 -145t-234.5 -52q-154 0 -279 64t-199.5 184t-74.5 275t74.5 275t199.5 183.5t279 63.5q215 0 341 -142t126 -380v-97h-713q19 -88 80.5 -140t150.5 -52q132 0 220 121zM385 610h406q2 78 -52.5 133.5t-136.5 55.5q-96 0 -153.5 -55.5
t-63.5 -133.5zM590 1450l207 -295h-271l-354 295h418z" />
    <glyph glyph-name="eacute" unicode="&#xe9;" horiz-adv-x="1175" 
d="M836 330l215 -158q-73 -93 -185.5 -145t-234.5 -52q-154 0 -279 64t-199.5 184t-74.5 275t74.5 275t199.5 183.5t279 63.5q215 0 341 -142t126 -380v-97h-713q19 -88 80.5 -140t150.5 -52q132 0 220 121zM385 610h406q2 78 -52.5 133.5t-136.5 55.5q-96 0 -153.5 -55.5
t-63.5 -133.5zM383 1155l207 295h418l-355 -295h-270z" />
    <glyph glyph-name="ecircumflex" unicode="&#xea;" horiz-adv-x="1175" 
d="M836 330l215 -158q-73 -93 -185.5 -145t-234.5 -52q-154 0 -279 64t-199.5 184t-74.5 275t74.5 275t199.5 183.5t279 63.5q215 0 341 -142t126 -380v-97h-713q19 -88 80.5 -140t150.5 -52q132 0 220 121zM385 610h406q2 78 -52.5 133.5t-136.5 55.5q-96 0 -153.5 -55.5
t-63.5 -133.5zM995 1155h-282l-129 160l-127 -160h-277l244 295h334z" />
    <glyph glyph-name="edieresis" unicode="&#xeb;" horiz-adv-x="1175" 
d="M836 330l215 -158q-73 -93 -185.5 -145t-234.5 -52q-154 0 -279 64t-199.5 184t-74.5 275t74.5 275t199.5 183.5t279 63.5q215 0 341 -142t126 -380v-97h-713q19 -88 80.5 -140t150.5 -52q132 0 220 121zM385 610h406q2 78 -52.5 133.5t-136.5 55.5q-96 0 -153.5 -55.5
t-63.5 -133.5zM373 1143q-71 0 -120.5 52.5t-49.5 123.5q0 67 49.5 117.5t116.5 50.5q72 0 125 -48t53 -120q0 -74 -50 -125t-124 -51zM799 1143q-71 0 -120.5 52.5t-49.5 123.5q0 67 49.5 117.5t116.5 50.5q72 0 125 -48t53 -120q0 -74 -50 -125t-124 -51z" />
    <glyph glyph-name="igrave" unicode="&#xec;" 
d="M113 0v995h307v-995h-307zM268 1450l207 -295h-270l-355 295h418z" />
    <glyph glyph-name="iacute" unicode="&#xed;" 
d="M113 0v995h307v-995h-307zM61 1155l207 295h418l-354 -295h-271z" />
    <glyph glyph-name="icircumflex" unicode="&#xee;" 
d="M113 0v995h307v-995h-307zM674 1155h-283l-129 160l-127 -160h-276l243 295h334z" />
    <glyph glyph-name="idieresis" unicode="&#xef;" 
d="M113 0v995h307v-995h-307zM51 1143q-71 0 -120.5 52.5t-49.5 123.5q0 67 49.5 117.5t116.5 50.5q72 0 125 -48t53 -120q0 -74 -50 -125t-124 -51zM477 1143q-71 0 -120.5 52.5t-49.5 123.5q0 67 49.5 117.5t116.5 50.5q72 0 125 -48t53 -120q0 -74 -50 -125t-124 -51z
" />
    <glyph glyph-name="eth" unicode="&#xf0;" horiz-adv-x="1249" 
d="M920 1591l157 -137l-252 -104q54 -57 88 -96.5t90 -120t89.5 -154t59.5 -180t26 -217.5q0 -283 -144.5 -446.5t-408.5 -160.5q-154 0 -279 64t-199.5 184t-74.5 275q0 115 44 214.5t115.5 166t162.5 104t186 37.5q135 0 200 -53l4 4q-44 63 -111.5 142.5t-115.5 121.5
l-217 -92l-147 139l221 94q-21 23 -64.5 60t-77.5 61l250 143q88 -68 164 -147zM379 498q0 -114 66 -183t180 -69t179.5 69t65.5 183t-65.5 183t-179.5 69t-180 -69t-66 -183z" />
    <glyph glyph-name="ntilde" unicode="&#xf1;" horiz-adv-x="1175" 
d="M109 0v995h294v-135h5q35 66 110.5 113t179.5 47q91 0 157.5 -24t107 -64.5t64 -103t32 -128t8.5 -151.5v-549h-307v487q0 38 -1 60.5t-5 58t-14.5 57t-27.5 44t-45.5 33t-66.5 10.5q-57 0 -95.5 -20.5t-57 -59t-25 -79t-6.5 -95.5v-496h-307zM348 1167h-162
q9 54 29 102.5t51.5 90t78 66t101.5 24.5q78 0 179 -43q4 -1 21 -8t24 -9.5t21 -6.5t25 -5.5t23 -1.5q58 0 90 74h160q-23 -131 -84.5 -207t-181.5 -76q-59 0 -160 43q-88 43 -129 43q-32 0 -53.5 -25.5t-32.5 -60.5z" />
    <glyph glyph-name="ograve" unicode="&#xf2;" horiz-adv-x="1249" 
d="M72 498q0 155 74.5 275t199.5 183.5t279 63.5t279 -63.5t199.5 -183.5t74.5 -275t-74.5 -275t-199.5 -184t-279 -64t-279 64t-199.5 184t-74.5 275zM379 498q0 -114 66 -183t180 -69t179.5 69t65.5 183t-65.5 183t-179.5 69t-180 -69t-66 -183zM627 1450l207 -295h-271
l-354 295h418z" />
    <glyph glyph-name="oacute" unicode="&#xf3;" horiz-adv-x="1249" 
d="M72 498q0 155 74.5 275t199.5 183.5t279 63.5t279 -63.5t199.5 -183.5t74.5 -275t-74.5 -275t-199.5 -184t-279 -64t-279 64t-199.5 184t-74.5 275zM379 498q0 -114 66 -183t180 -69t179.5 69t65.5 183t-65.5 183t-179.5 69t-180 -69t-66 -183zM420 1155l207 295h417
l-354 -295h-270z" />
    <glyph glyph-name="ocircumflex" unicode="&#xf4;" horiz-adv-x="1249" 
d="M72 498q0 155 74.5 275t199.5 183.5t279 63.5t279 -63.5t199.5 -183.5t74.5 -275t-74.5 -275t-199.5 -184t-279 -64t-279 64t-199.5 184t-74.5 275zM379 498q0 -114 66 -183t180 -69t179.5 69t65.5 183t-65.5 183t-179.5 69t-180 -69t-66 -183zM1032 1155h-282l-129 160
l-127 -160h-277l244 295h334z" />
    <glyph glyph-name="otilde" unicode="&#xf5;" horiz-adv-x="1249" 
d="M72 498q0 155 74.5 275t199.5 183.5t279 63.5t279 -63.5t199.5 -183.5t74.5 -275t-74.5 -275t-199.5 -184t-279 -64t-279 64t-199.5 184t-74.5 275zM379 498q0 -114 66 -183t180 -69t179.5 69t65.5 183t-65.5 183t-179.5 69t-180 -69t-66 -183zM385 1167h-162
q9 54 29 102.5t51.5 90t78 66t101.5 24.5q78 0 179 -43q4 -1 21 -8t24 -9.5t21 -6.5t25 -5.5t23 -1.5q58 0 90 74h160q-23 -131 -84.5 -207t-181.5 -76q-59 0 -160 43q-88 43 -129 43q-32 0 -53.5 -25.5t-32.5 -60.5z" />
    <glyph glyph-name="odieresis" unicode="&#xf6;" horiz-adv-x="1249" 
d="M72 498q0 155 74.5 275t199.5 183.5t279 63.5t279 -63.5t199.5 -183.5t74.5 -275t-74.5 -275t-199.5 -184t-279 -64t-279 64t-199.5 184t-74.5 275zM379 498q0 -114 66 -183t180 -69t179.5 69t65.5 183t-65.5 183t-179.5 69t-180 -69t-66 -183zM410 1143
q-71 0 -120.5 52.5t-49.5 123.5q0 67 49.5 117.5t116.5 50.5q72 0 125 -48t53 -120q0 -74 -50 -125t-124 -51zM836 1143q-71 0 -120.5 52.5t-49.5 123.5q0 67 49 117.5t116 50.5q72 0 125.5 -48t53.5 -120q0 -74 -50 -125t-124 -51z" />
    <glyph glyph-name="divide" unicode="&#xf7;" horiz-adv-x="1363" 
d="M121 492v258h1122v-258h-1122zM506 233q0 72 52 124.5t124 52.5t124 -52.5t52 -124.5t-52 -124t-124 -52t-124 52t-52 124zM506 1008q0 72 52 124t124 52t124 -52t52 -124t-52 -124.5t-124 -52.5t-124 52.5t-52 124.5z" />
    <glyph glyph-name="oslash" unicode="&#xf8;" horiz-adv-x="1249" 
d="M53 12l144 144q-125 138 -125 342q0 155 74.5 275t199.5 183.5t279 63.5q192 0 338 -100l137 137l96 -92l-135 -136q117 -136 117 -331q0 -155 -74.5 -275t-199.5 -184t-279 -64q-183 0 -326 95l-149 -150zM410 369l348 348q-58 33 -133 33q-114 0 -180 -69t-66 -183
q0 -72 31 -129zM846 614l-342 -340q54 -28 121 -28q114 0 179.5 69t65.5 183q0 64 -24 116z" />
    <glyph glyph-name="ugrave" unicode="&#xf9;" horiz-adv-x="1175" 
d="M1067 995v-995h-295v135h-4q-35 -66 -111 -113t-180 -47q-91 0 -157.5 24t-106.5 64t-64 103t-32 128.5t-8 151.5v549h307v-487q0 -33 0.5 -51.5t3.5 -50t9 -50.5t17.5 -42.5t28 -36.5t42 -22t58.5 -9q46 0 80.5 14.5t54 37.5t31.5 57.5t15.5 68t3.5 76.5v495h307z
M590 1450l207 -295h-271l-354 295h418z" />
    <glyph glyph-name="uacute" unicode="&#xfa;" horiz-adv-x="1175" 
d="M1067 995v-995h-295v135h-4q-35 -66 -111 -113t-180 -47q-91 0 -157.5 24t-106.5 64t-64 103t-32 128.5t-8 151.5v549h307v-487q0 -33 0.5 -51.5t3.5 -50t9 -50.5t17.5 -42.5t28 -36.5t42 -22t58.5 -9q46 0 80.5 14.5t54 37.5t31.5 57.5t15.5 68t3.5 76.5v495h307z
M383 1155l207 295h418l-355 -295h-270z" />
    <glyph glyph-name="ucircumflex" unicode="&#xfb;" horiz-adv-x="1175" 
d="M1067 995v-995h-295v135h-4q-35 -66 -111 -113t-180 -47q-91 0 -157.5 24t-106.5 64t-64 103t-32 128.5t-8 151.5v549h307v-487q0 -33 0.5 -51.5t3.5 -50t9 -50.5t17.5 -42.5t28 -36.5t42 -22t58.5 -9q46 0 80.5 14.5t54 37.5t31.5 57.5t15.5 68t3.5 76.5v495h307z
M995 1155h-282l-129 160l-127 -160h-277l244 295h334z" />
    <glyph glyph-name="udieresis" unicode="&#xfc;" horiz-adv-x="1175" 
d="M1067 995v-995h-295v135h-4q-35 -66 -111 -113t-180 -47q-91 0 -157.5 24t-106.5 64t-64 103t-32 128.5t-8 151.5v549h307v-487q0 -33 0.5 -51.5t3.5 -50t9 -50.5t17.5 -42.5t28 -36.5t42 -22t58.5 -9q46 0 80.5 14.5t54 37.5t31.5 57.5t15.5 68t3.5 76.5v495h307z
M373 1143q-71 0 -120.5 52.5t-49.5 123.5q0 67 49.5 117.5t116.5 50.5q72 0 125 -48t53 -120q0 -74 -50 -125t-124 -51zM799 1143q-71 0 -120.5 52.5t-49.5 123.5q0 67 49.5 117.5t116.5 50.5q72 0 125 -48t53 -120q0 -74 -50 -125t-124 -51z" />
    <glyph glyph-name="yacute" unicode="&#xfd;" horiz-adv-x="1138" 
d="M1133 995l-451 -1157q-31 -80 -48 -117.5t-51 -88t-72.5 -71.5t-101.5 -37t-149 -16q-119 0 -229 37l41 252q70 -30 143 -30q41 0 71 8t48.5 18.5t35.5 36t25.5 44.5t24.5 60l22 58l-436 1003h332l256 -657h4l219 657h316zM365 1155l206 295h418l-354 -295h-270z" />
    <glyph glyph-name="thorn" unicode="&#xfe;" horiz-adv-x="1290" 
d="M137 -467v2015h307v-659h5q35 59 114 95t166 36q220 0 355 -143.5t135 -370.5q0 -104 -32 -199.5t-89 -169.5t-144 -118t-190 -44q-219 0 -315 131h-5v-573h-307zM420 498q0 -114 66 -183t180 -69t179.5 69t65.5 183t-65.5 183t-179.5 69t-180 -69t-66 -183z" />
    <glyph glyph-name="ydieresis" unicode="&#xff;" horiz-adv-x="1138" 
d="M1133 995l-451 -1157q-31 -80 -48 -117.5t-51 -88t-72.5 -71.5t-101.5 -37t-149 -16q-119 0 -229 37l41 252q70 -30 143 -30q41 0 71 8t48.5 18.5t35.5 36t25.5 44.5t24.5 60l22 58l-436 1003h332l256 -657h4l219 657h316zM354 1143q-71 0 -120.5 52.5t-49.5 123.5
q0 67 49.5 117.5t116.5 50.5q72 0 125 -48t53 -120q0 -74 -50 -125t-124 -51zM780 1143q-71 0 -120.5 52.5t-49.5 123.5q0 67 49.5 117.5t116.5 50.5q72 0 125 -48t53 -120q0 -74 -50 -125t-124 -51z" />
    <glyph glyph-name="dotlessi" unicode="&#x131;" 
d="M113 0v995h307v-995h-307z" />
    <glyph glyph-name="Lslash" unicode="&#x141;" horiz-adv-x="1099" 
d="M160 0v328l-123 -107v271l123 106v852h319v-576l430 379v-266l-430 -377v-315h592v-295h-911z" />
    <glyph glyph-name="lslash" unicode="&#x142;" 
d="M113 0v508l-123 -125v264l123 125v776h307v-469l123 125v-264l-123 -125v-815h-307z" />
    <glyph glyph-name="OE" unicode="&#x152;" horiz-adv-x="2084" 
d="M1362 1155v-270h541v-295h-541v-295h614v-295h-1087q-120 0 -235 26t-221.5 83.5t-186.5 140.5t-128 205.5t-48 269.5q0 172 62 311t171 229t254.5 137.5t314.5 47.5h1080v-295h-590zM1042 295v860h-104q-244 0 -390.5 -110.5t-146.5 -319.5t146.5 -319.5t390.5 -110.5
h104z" />
    <glyph glyph-name="oe" unicode="&#x153;" horiz-adv-x="1933" 
d="M1593 330l215 -158q-73 -93 -185.5 -145t-233.5 -52q-131 0 -226 33.5t-164 108.5q-137 -142 -372 -142q-154 0 -280 64t-200.5 184t-74.5 275t74.5 275t200 183.5t280.5 63.5q225 0 372 -150q143 150 390 150q215 0 340.5 -141.5t125.5 -380.5v-97h-712
q19 -88 80.5 -140t150.5 -52q131 0 219 121zM627 750q-116 0 -182 -69t-66 -183t66 -183t182 -69q114 0 179.5 69t65.5 183t-65.5 183t-179.5 69zM1143 610h405q2 78 -52 133.5t-136 55.5q-96 0 -153.5 -55.5t-63.5 -133.5z" />
    <glyph glyph-name="Scaron" unicode="&#x160;" horiz-adv-x="1175" 
d="M1083 1335l-219 -239q-36 46 -101.5 71t-129.5 25q-50 0 -96.5 -14t-82.5 -49.5t-36 -86.5q0 -53 37 -89t95.5 -57.5t129.5 -41t142.5 -48t130 -70.5t95.5 -117.5t37 -178.5q0 -118 -45 -210.5t-123 -150t-177.5 -87t-213.5 -29.5q-291 0 -487 182l227 250
q49 -64 124 -100.5t155 -36.5q86 0 153.5 40t67.5 112q0 42 -23.5 74.5t-62.5 54t-90 39.5t-107.5 35.5t-113 38t-107.5 52t-90 71.5t-62.5 102t-23.5 139q0 112 46 203.5t124 148.5t176.5 88t206.5 31q272 0 444 -152zM172 1905h283l129 -160l127 160h276l-244 -295h-333z
" />
    <glyph glyph-name="scaron" unicode="&#x161;" horiz-adv-x="948" 
d="M860 889l-188 -187q-69 84 -178 84q-44 0 -78.5 -20t-34.5 -61q0 -29 28.5 -48t74.5 -30t101 -22t110 -31.5t101 -50.5t74.5 -86.5t28.5 -133.5q0 -73 -27.5 -131t-72.5 -94.5t-106 -60t-123 -33t-130 -9.5q-114 0 -218 33t-173 103l187 206q88 -108 217 -108
q59 0 99 17.5t40 54.5q0 28 -22.5 47.5t-58.5 29.5t-82.5 21t-95.5 21t-95.5 32t-82.5 51.5t-58.5 81t-22.5 119.5q0 84 35.5 150t95.5 105.5t133 60t154 20.5q245 0 368 -131zM59 1450h283l129 -160l127 160h276l-243 -295h-334z" />
    <glyph glyph-name="Ydieresis" unicode="&#x178;" horiz-adv-x="1327" 
d="M504 0v618l-545 832h397l308 -543l325 543h379l-545 -832v-618h-319zM449 1597q-71 0 -120.5 52.5t-49.5 124.5q0 67 49 117.5t116 50.5q72 0 125.5 -48t53.5 -120q0 -74 -50 -125.5t-124 -51.5zM874 1597q-71 0 -120 52.5t-49 124.5q0 67 49 117.5t116 50.5
q72 0 125.5 -48t53.5 -120q0 -74 -50.5 -125.5t-124.5 -51.5z" />
    <glyph glyph-name="Zcaron" unicode="&#x17d;" horiz-adv-x="1290" 
d="M72 0v295l735 872h-709v283h1096v-283l-721 -872h746v-295h-1147zM229 1905h283l129 -160l127 160h276l-243 -295h-334z" />
    <glyph glyph-name="zcaron" unicode="&#x17e;" horiz-adv-x="1024" 
d="M70 0v307l516 443h-504v245h860v-295l-541 -454h553v-246h-884zM96 1450h283l129 -160l127 160h276l-243 -295h-334z" />
    <glyph glyph-name="florin" unicode="&#x192;" horiz-adv-x="1212" 
d="M1016 889v-209h-299l-119 -598q-36 -178 -132.5 -272.5t-279.5 -94.5q-116 0 -227 49l107 244q40 -22 94 -22q64 0 97.5 43.5t55.5 150.5l103 500h-234v209h275l37 186q44 228 130.5 314t274.5 86q133 0 266 -62l-108 -231q-52 22 -107 22q-72 0 -107.5 -39t-54.5 -131
l-30 -145h258z" />
    <glyph glyph-name="circumflex" unicode="&#x2c6;" 
d="M674 1155h-283l-129 160l-127 -160h-276l243 295h334z" />
    <glyph glyph-name="caron" unicode="&#x2c7;" 
d="M-150 1450h283l129 -160l127 160h277l-244 -295h-334z" />
    <glyph glyph-name="uni02C9" unicode="&#x2c9;" 
d="M614 1407v-197h-696v197h696z" />
    <glyph glyph-name="breve" unicode="&#x2d8;" 
d="M-111 1450h164q22 -98 213 -98q36 0 60.5 1.5t51.5 7t45 16t33.5 29t24.5 44.5h162q-16 -149 -118.5 -222t-258.5 -73q-76 0 -140 16.5t-116.5 50t-84.5 92t-36 136.5z" />
    <glyph glyph-name="dotaccent" unicode="&#x2d9;" 
d="M264 1143q-71 0 -120.5 52.5t-49.5 123.5q0 67 49.5 117.5t116.5 50.5q72 0 125 -48t53 -120q0 -74 -50 -125t-124 -51z" />
    <glyph glyph-name="ring" unicode="&#x2da;" 
d="M266 1116q-94 0 -160.5 66.5t-66.5 160.5t66.5 161t160.5 67t161 -67t67 -161t-67 -160.5t-161 -66.5zM162 1343q0 -43 30.5 -73.5t73.5 -30.5t74 30.5t31 73.5t-31 74t-74 31t-73.5 -31t-30.5 -74z" />
    <glyph glyph-name="ogonek" unicode="&#x2db;" 
d="M362 -297l58 -109q-115 -86 -223 -86q-89 0 -152 52t-63 139q0 81 66.5 171.5t148.5 154.5h139q-61 -51 -115.5 -131.5t-54.5 -143.5q0 -35 25.5 -64.5t60.5 -29.5q55 0 110 47z" />
    <glyph glyph-name="tilde" unicode="&#x2dc;" 
d="M27 1167h-162q9 54 29 102.5t51.5 90t78 66t101.5 24.5q77 0 178 -43q2 -1 21 -8.5t24.5 -9t20.5 -6t26 -6t23 -1.5q58 0 90 74h160q-23 -131 -85 -207t-182 -76q-58 0 -159 43q-88 43 -129 43q-32 0 -53.5 -25.5t-32.5 -60.5z" />
    <glyph glyph-name="hungarumlaut" unicode="&#x2dd;" 
d="M-209 1155l207 295h418l-355 -295h-270zM332 1155l207 295h417l-354 -295h-270z" />
    <glyph glyph-name="uni03A9" unicode="&#x3a9;" horiz-adv-x="1538" 
d="M373 223v6q-112 100 -187 246t-75 328q0 134 48.5 255t133.5 211.5t210.5 143.5t270.5 53q152 0 278.5 -58t206 -152t123 -208.5t43.5 -232.5q0 -185 -76.5 -336.5t-191.5 -249.5v-6h297v-223h-580v166q116 73 190.5 219t74.5 371q0 130 -41 238t-126 176.5t-200 68.5
q-167 0 -271 -139t-104 -355q0 -210 75.5 -362.5t189.5 -216.5v-166h-582v223h293z" />
    <glyph glyph-name="uni03BC" unicode="&#x3bc;" horiz-adv-x="1175" 
d="M1067 995v-995h-295v135h-4q-35 -66 -111 -113t-180 -47q-29 0 -61 7v-449h-307v1462h307v-487q0 -33 0.5 -51.5t3.5 -50t9 -50.5t17.5 -42.5t28 -36.5t42 -22t58.5 -9q46 0 80.5 14.5t54 37.5t31.5 57.5t15.5 68t3.5 76.5v495h307z" />
    <glyph glyph-name="pi" unicode="&#x3c0;" horiz-adv-x="1304" 
d="M1253 852h-151v-537q0 -199 28 -315h-274q-37 59 -37 301v551h-291q-9 -194 -46.5 -451.5t-88.5 -400.5h-274q52 175 90 427.5t41 424.5q-140 0 -211 -21l-31 183q88 71 357 71h909z" />
    <glyph glyph-name="endash" unicode="&#x2013;" horiz-adv-x="1024" 
d="M0 387v246h1024v-246h-1024z" />
    <glyph glyph-name="emdash" unicode="&#x2014;" horiz-adv-x="2048" 
d="M0 387v246h2048v-246h-2048z" />
    <glyph glyph-name="quoteleft" unicode="&#x2018;" horiz-adv-x="606" 
d="M80 872l184 578h262l-151 -578h-295z" />
    <glyph glyph-name="quoteright" unicode="&#x2019;" horiz-adv-x="606" 
d="M526 1450l-184 -578h-262l151 578h295z" />
    <glyph glyph-name="quotesinglbase" unicode="&#x201a;" horiz-adv-x="606" 
d="M526 319l-184 -577h-262l151 577h295z" />
    <glyph glyph-name="quotedblleft" unicode="&#x201c;" horiz-adv-x="1064" 
d="M90 872l184 578h263l-152 -578h-295zM528 872l185 578h262l-152 -578h-295z" />
    <glyph glyph-name="quotedblright" unicode="&#x201d;" horiz-adv-x="1064" 
d="M975 1450l-184 -578h-263l152 578h295zM537 1450l-185 -578h-262l152 578h295z" />
    <glyph glyph-name="quotedblbase" unicode="&#x201e;" horiz-adv-x="1064" 
d="M975 319l-184 -577h-263l152 577h295zM537 319l-185 -577h-262l152 577h295z" />
    <glyph glyph-name="dagger" unicode="&#x2020;" horiz-adv-x="1212" 
d="M459 -272v1034h-389v258h389v430h282v-430h402v-258h-402v-1034h-282z" />
    <glyph glyph-name="daggerdbl" unicode="&#x2021;" horiz-adv-x="1212" 
d="M465 -272v368h-395v246h395v494h-395v245h395v369h283v-369h395v-245h-395v-494h395v-246h-395v-368h-283z" />
    <glyph glyph-name="bullet" unicode="&#x2022;" horiz-adv-x="1024" 
d="M150 725q0 151 105.5 256.5t256.5 105.5t256.5 -105.5t105.5 -256.5t-105.5 -257t-256.5 -106t-256.5 106t-105.5 257z" />
    <glyph glyph-name="ellipsis" unicode="&#x2026;" horiz-adv-x="2048" 
d="M154 176q0 78 55 133.5t133 55.5t133 -55.5t55 -133.5t-55 -133t-133 -55t-133 55t-55 133zM836 176q0 78 55 133.5t133 55.5t133 -55.5t55 -133.5t-55 -133t-133 -55t-133 55t-55 133zM1518 176q0 78 55 133.5t133 55.5t133 -55.5t55 -133.5t-55 -133t-133 -55t-133 55
t-55 133z" />
    <glyph glyph-name="perthousand" unicode="&#x2030;" horiz-adv-x="2390" 
d="M809 338q0 150 105 255t255 105q149 0 255 -105.5t106 -254.5t-106 -256t-255 -107q-150 0 -255 106.5t-105 256.5zM1006 338q0 -68 48 -117t115 -49t115.5 49t48.5 117t-48.5 116t-115.5 48t-115 -48t-48 -116zM1602 338q0 149 105.5 254.5t254.5 105.5t255.5 -105.5
t106.5 -254.5t-106.5 -256t-255.5 -107t-254.5 106.5t-105.5 256.5zM1798 338q0 -68 48.5 -117t115.5 -49q68 0 117 49t49 117q0 67 -49 115.5t-117 48.5t-116 -48t-48 -116zM66 1114q0 150 105 255.5t255 105.5q149 0 255.5 -106t106.5 -255t-106.5 -255.5t-255.5 -106.5
q-150 0 -255 106t-105 256zM262 1114q0 -68 48.5 -117t115.5 -49q68 0 117 49t49 117q0 67 -49 115.5t-117 48.5t-116 -48t-48 -116zM301 23l829 1493l173 -97l-846 -1485z" />
    <glyph glyph-name="guilsinglleft" unicode="&#x2039;" horiz-adv-x="606" 
d="M549 864l-238 -354l238 -354l-187 -125l-325 479l325 479z" />
    <glyph glyph-name="guilsinglright" unicode="&#x203a;" horiz-adv-x="606" 
d="M57 156l238 354l-238 354l187 125l325 -479l-325 -479z" />
    <glyph glyph-name="fraction" unicode="&#x2044;" horiz-adv-x="342" 
d="M-330 23l830 1493l172 -97l-846 -1485z" />
    <glyph glyph-name="Euro" unicode="&#x20ac;" horiz-adv-x="1212" 
d="M1184 154l-168 206q-93 -118 -246 -118q-198 0 -264 213h328l59 184h-418q-2 14 -2 41v43q0 30 4 92h463l61 189h-481q83 196 305 196q69 0 130 -15t94 -36l94 266q-39 24 -141 42t-177 18q-246 0 -406.5 -120t-221.5 -351h-107l-63 -189h139q-4 -66 -4 -100v-39
q0 -25 2 -37h-86l-58 -184h166q48 -235 188 -357.5t367 -122.5q135 0 255 49t188 130z" />
    <glyph glyph-name="afii61289" unicode="&#x2113;" horiz-adv-x="1118" 
d="M963 397l114 -118q-156 -297 -456 -297q-92 0 -163 26t-117 73t-72.5 105t-37.5 129q0 15 -2 23q-98 -76 -108 -82l-72 145q22 17 59 46t66 52.5t53 45.5v508q0 268 108 402t281 134q152 0 231 -104t79 -266q0 -177 -108.5 -350.5t-319.5 -368.5l2 -80q3 -101 55 -157
t131 -56q81 0 153 54.5t124 135.5zM498 1069v-317q245 274 245 473q0 170 -114 170q-54 0 -92.5 -76t-38.5 -250z" />
    <glyph glyph-name="trademark" unicode="&#x2122;" horiz-adv-x="2048" 
d="M326 606v647h-244v197h709v-197h-244v-647h-221zM971 606v844h297l200 -549l201 549h297v-844h-221v549h-4l-201 -549h-143l-201 549h-4v-549h-221z" />
    <glyph glyph-name="Omega" unicode="&#x2126;" horiz-adv-x="1538" 
d="M373 223v6q-112 100 -187 246t-75 328q0 134 48.5 255t133.5 211.5t210.5 143.5t270.5 53q152 0 278.5 -58t206 -152t123 -208.5t43.5 -232.5q0 -185 -76.5 -336.5t-191.5 -249.5v-6h297v-223h-580v166q116 73 190.5 219t74.5 371q0 130 -41 238t-126 176.5t-200 68.5
q-167 0 -271 -139t-104 -355q0 -210 75.5 -362.5t189.5 -216.5v-166h-582v223h293z" />
    <glyph glyph-name="estimated" unicode="&#x212e;" horiz-adv-x="1808" 
d="M1735 705h-1348q-10 0 -10 -11v-407q0 -25 16 -47q101 -104 232.5 -163t277.5 -59q157 0 296.5 66t240.5 182h121q-115 -133 -289 -211t-371 -78q-169 0 -323 59t-265 159t-177 239t-66 291q0 153 66 291.5t177 239t265 160t323 59.5q170 0 324.5 -59.5t266 -160
t177.5 -239t66 -291.5v-20zM1430 758v409q0 29 -21 50q-102 100 -231.5 156.5t-274.5 56.5q-144 0 -275.5 -58.5t-232.5 -161.5q-18 -21 -18 -51v-401q0 -4 3 -9.5t7 -5.5h1034q9 0 9 15z" />
    <glyph glyph-name="partialdiff" unicode="&#x2202;" horiz-adv-x="1241" 
d="M219 1307l-80 202q166 123 402 123q123 0 231 -52t190.5 -149t130.5 -249.5t48 -341.5q0 -254 -72.5 -447t-212 -301t-326.5 -108q-89 0 -165 30.5t-128 80.5t-88.5 115t-53.5 132.5t-17 134.5q0 243 133 392t332 149q63 0 119.5 -18.5t95.5 -47.5t64 -54.5t40 -49.5h2
q2 16 2 67q0 130 -43.5 241t-127.5 180t-191 69q-154 0 -285 -98zM557 213h2q57 0 106.5 37t84 98t57 131.5t31.5 143.5q-17 59 -82.5 117.5t-153.5 58.5q-106 0 -176 -98t-70 -232q0 -108 56 -182t145 -74z" />
    <glyph glyph-name="Delta" unicode="&#x2206;" horiz-adv-x="1419" 
d="M55 0v160l492 1317h338l477 -1315v-162h-1307zM348 223h707l-230 600q-15 51 -60 185t-58 180h-7q-9 -37 -50.5 -159.5t-57.5 -174.5z" />
    <glyph glyph-name="product" unicode="&#x220f;" horiz-adv-x="1554" 
d="M1503 1194h-221v-1393h-276v1393h-459v-1393h-277v1393h-221v250h1454v-250z" />
    <glyph glyph-name="summation" unicode="&#x2211;" horiz-adv-x="1204" 
d="M1165 -199h-1118v174l516 648l-495 628v193h1062v-236h-684v-8l433 -534l-478 -605v-6h764v-254z" />
    <glyph glyph-name="minus" unicode="&#x2212;" horiz-adv-x="1363" 
d="M121 492v258h1122v-258h-1122z" />
    <glyph glyph-name="uni2215" unicode="&#x2215;" horiz-adv-x="342" 
d="M-330 23l830 1493l172 -97l-846 -1485z" />
    <glyph glyph-name="uni2219" unicode="&#x2219;" horiz-adv-x="606" 
d="M115 580q0 78 55 133t133 55t133.5 -55t55.5 -133t-55.5 -133.5t-133.5 -55.5t-133 55.5t-55 133.5z" />
    <glyph glyph-name="radical" unicode="&#x221a;" horiz-adv-x="1277" 
d="M1300 1733l-485 -2024h-223l-322 901l-157 -63l-47 151l370 152l223 -660q6 -26 43 -178l3 -2q25 146 34 193l365 1530h196z" />
    <glyph glyph-name="infinity" unicode="&#x221e;" horiz-adv-x="1644" 
d="M1542 598v-2q0 -166 -101 -267.5t-239 -101.5q-97 0 -188 53.5t-191 186.5q-95 -118 -183.5 -179t-205.5 -61q-136 0 -235 101.5t-99 257.5q0 159 100.5 260.5t252.5 101.5q112 0 200.5 -59t177.5 -174q3 3 26.5 29.5t29.5 33t29.5 31t34 32.5t34 27.5t39 27t41 21
t46.5 18.5t48 9t55 4q140 0 234 -97t94 -253zM453 379h4q42 0 80 15.5t78 51t62 59t64 73.5q-28 38 -37 50t-34.5 44t-39 44t-38 33t-44.5 29t-47 15.5t-55 7.5q-88 0 -140 -61t-52 -156q0 -85 57.5 -145t141.5 -60zM1198 801h-2q-26 0 -51.5 -6.5t-50.5 -22.5t-42.5 -27.5
t-43 -38.5t-35 -37t-35.5 -42t-29 -35q98 -122 159.5 -167.5t137.5 -45.5q82 0 132.5 64.5t50.5 140.5q0 96 -52.5 156.5t-138.5 60.5z" />
    <glyph glyph-name="integral" unicode="&#x222b;" horiz-adv-x="839" 
d="M799 1763l-29 -188q-36 18 -78 18q-67 0 -106 -53q-58 -73 -58 -344q0 -164 16.5 -480.5t16.5 -508.5q0 -276 -78 -412q-40 -80 -114.5 -117.5t-161.5 -37.5q-98 0 -168 34l35 195q57 -23 92 -23q61 0 94 41q30 40 44.5 113t14.5 207q0 193 -16 517.5t-16 498.5
q0 181 30 289.5t99 179.5q43 48 110.5 72t141.5 24q68 0 131 -25z" />
    <glyph glyph-name="approxequal" unicode="&#x2248;" horiz-adv-x="1177" 
d="M995 946l99 -94q-54 -100 -129 -157.5t-162 -57.5q-62 0 -113 19t-127 65q-41 25 -61.5 36t-55 22.5t-67.5 11.5q-34 0 -62.5 -11.5t-54.5 -37.5t-42 -46t-42 -57l-100 92q49 95 133 155t180 60q19 0 37.5 -2.5t32.5 -5t32 -8.5t27.5 -10t27.5 -13t23.5 -12t23.5 -13
t21 -12q52 -31 71.5 -42t52 -22t63.5 -11q58 0 101.5 37.5t90.5 113.5zM995 549l99 -92q-55 -100 -130 -158.5t-163 -58.5q-59 0 -109 19t-129 65q-4 2 -19 11t-19 11.5t-17.5 10t-18 9.5t-16.5 8t-18.5 7.5t-17 5t-19 5t-19 2.5t-20.5 1q-44 0 -83.5 -24.5t-61.5 -51.5
t-56 -77l-100 94q49 94 133.5 154.5t179.5 60.5q19 0 37.5 -2.5t32.5 -5t32 -8.5t27.5 -10t27.5 -13t23.5 -12t23.5 -13t21 -12q9 -5 44.5 -26t49 -27.5t40 -14.5t51.5 -8q58 0 100 36t94 114z" />
    <glyph glyph-name="notequal" unicode="&#x2260;" horiz-adv-x="1177" 
d="M868 1071l-82 -184h289v-160h-350l-125 -283h475v-157h-538l-107 -242l-125 53l84 189h-287v157h349l124 283h-473v160h535l104 235z" />
    <glyph glyph-name="lessequal" unicode="&#x2264;" horiz-adv-x="1177" 
d="M1069 209l-956 467v172l956 467v-185l-797 -364v-4l797 -369v-184zM1077 -31h-973v162h973v-162z" />
    <glyph glyph-name="greaterequal" unicode="&#x2265;" horiz-adv-x="1177" 
d="M115 1315l958 -467v-172l-956 -467v184l794 367v6l-796 364v185zM1073 -31h-967v162h967v-162z" />
    <glyph glyph-name="lozenge" unicode="&#x25ca;" horiz-adv-x="1275" 
d="M1171 721l-428 -825h-221l-418 825l426 825h224zM926 715l-244 491q-29 68 -41 119h-6q-15 -56 -41 -119l-244 -479l246 -500q26 -64 37 -112h8q21 76 37 108z" />
    </font>
</defs>
</svg>
