<?xml version="1.0" standalone="no"?>
<!DOCTYPE svg PUBLIC "-//W3C//DTD SVG 1.1//EN" "http://www.w3.org/Graphics/SVG/1.1/DTD/svg11.dtd" >
<svg xmlns="http://www.w3.org/2000/svg" xmlns:xlink="http://www.w3.org/1999/xlink" version="1.1">
<metadata>
Created by FontForge 20201107 at Wed Jul 17 16:26:09 2024
 By 
Copyright (c) 1989, 1995, 2002 Adobe Systems Incorporated.  All Rights Reserved. (c) 1981, 1995, 2002 Heidelberger Druckmaschinen AG. All rights reserved.
</metadata>
<defs>
<font id="AvenirLTStd-BookOblique" horiz-adv-x="1138" >
  <font-face 
    font-family="Avenir LT Std 45 Book"
    font-weight="350"
    font-style="oblique"
    font-stretch="normal"
    units-per-em="2048"
    panose-1="2 11 5 2 2 2 3 2 2 4"
    ascent="1638"
    descent="-410"
    x-height="958"
    cap-height="1450"
    bbox="-342 -590 2138 1884"
    underline-thickness="102"
    underline-position="-204"
    slope="-8"
    unicode-range="U+0020-FB02"
  />
<missing-glyph horiz-adv-x="1224" 
d="M201 0v1434h1024v-1434h-1024zM713 809l348 522h-696zM774 717l348 -522v1044zM365 102h696l-348 523zM303 1239v-1044l348 522z" />
    <glyph glyph-name="fi" unicode="fi" horiz-adv-x="1099" 
d="M729 958l-18 -122h-228l-116 -836h-136l117 836h-203l19 122h203l36 263q49 352 371 352q50 0 115 -14l-41 -123q-58 14 -103 14q-54 0 -92.5 -18t-61.5 -53.5t-35 -76.5t-19 -98l-35 -246h227zM1057 958l-135 -958h-136l136 958h135zM1139 1327q-6 -41 -40.5 -69.5
t-72.5 -28.5t-64 28.5t-20 69.5t40.5 69.5t72.5 28.5t64 -28.5t20 -69.5z" />
    <glyph glyph-name="fl" unicode="fl" horiz-adv-x="1099" 
d="M729 958l-18 -122h-228l-116 -836h-136l117 836h-203l19 122h203l36 263q49 352 371 352q50 0 115 -14l-41 -123q-58 14 -103 14q-54 0 -92.5 -18t-61.5 -53.5t-35 -76.5t-19 -98l-35 -246h227zM1139 1548l-217 -1548h-136l218 1548h135z" />
    <glyph glyph-name=".notdef" horiz-adv-x="1224" 
d="M201 0v1434h1024v-1434h-1024zM713 809l348 522h-696zM774 717l348 -522v1044zM365 102h696l-348 523zM303 1239v-1044l348 522z" />
    <glyph glyph-name=".null" horiz-adv-x="0" 
 />
    <glyph glyph-name="nonmarkingreturn" horiz-adv-x="682" 
 />
    <glyph glyph-name="space" unicode=" " horiz-adv-x="569" 
 />
    <glyph glyph-name="exclam" unicode="!" horiz-adv-x="569" 
d="M563 1450l-149 -1057h-148l150 1057h147zM410 98q-6 -44 -42.5 -77t-84.5 -33t-74.5 33t-20.5 77q6 45 41.5 78t83.5 33t75.5 -33.5t21.5 -77.5z" />
    <glyph glyph-name="quotedbl" unicode="&#x22;" horiz-adv-x="1062" 
d="M457 969l69 481h123l-69 -481h-123zM754 969l69 481h123l-69 -481h-123z" />
    <glyph glyph-name="numbersign" unicode="#" 
d="M219 0l123 438h-209l19 123h225l90 332h-221l18 123h240l121 434h125l-121 -434h272l121 434h125l-121 -434h184l-18 -123h-203l-90 -332h195l-19 -123h-211l-123 -438h-125l123 438h-272l-123 -438h-125zM592 893l-90 -332h272l90 332h-272z" />
    <glyph glyph-name="dollar" unicode="$" 
d="M637 829l72 517q-108 -7 -189 -82t-96 -181q-12 -96 44.5 -154t168.5 -100zM709 643l-76 -541q34 0 69.5 7.5t74.5 27t71 48t56.5 75.5t33.5 105q16 99 -46.5 169t-182.5 109zM535 100l79 572q-60 19 -107.5 40t-97.5 56t-81 76t-46.5 102t-5.5 133q24 170 156.5 279.5
t294.5 120.5l21 143h98l-19 -139q70 0 127.5 -14t99.5 -40t71 -54t57 -66l-129 -99q-31 69 -99 104.5t-147 33.5l-76 -547q86 -33 143 -63t117 -80.5t83.5 -124t10.5 -168.5q-24 -168 -157 -277.5t-314 -120.5l-20 -139h-98l18 135q-135 7 -241 70t-158 155l135 88
q53 -81 135 -129.5t150 -46.5z" />
    <glyph glyph-name="percent" unicode="%" horiz-adv-x="1705" 
d="M956 1116q-22 -151 -140.5 -254.5t-270.5 -103.5t-241.5 103.5t-67.5 254.5q20 151 138.5 255t270.5 104t241.5 -104t69.5 -255zM834 1116q13 100 -47 168t-158 68t-178 -68t-93 -168q-15 -100 45 -167.5t158 -67.5t178 67.5t95 167.5zM1675 334q-22 -151 -140.5 -255
t-270.5 -104t-242 104t-68 255t141 254.5t271 103.5t241.5 -103.5t67.5 -254.5zM1552 334q13 100 -46.5 167.5t-157.5 67.5t-178 -67.5t-93 -167.5t47 -168t158 -68t177.5 68t92.5 168zM1571 1458l-1135 -1521l-100 55l1139 1521z" />
    <glyph glyph-name="ampersand" unicode="&#x26;" horiz-adv-x="1441" 
d="M1460 784l-330 -448l279 -336h-209l-174 213q-113 -125 -225.5 -187.5t-253.5 -62.5q-123 0 -218 48.5t-145 144t-32 221.5q37 271 389 428q-144 184 -121 340q21 159 136 250.5t273 91.5q151 0 239 -86.5t67 -239.5q-10 -68 -45.5 -126.5t-93 -105.5t-110.5 -78.5
t-124 -66.5l285 -344l247 344h166zM987 1161q12 85 -38.5 138t-135.5 53q-93 0 -164 -58.5t-84 -154.5q-9 -65 31.5 -141t83.5 -119q7 3 46 23.5t51 27t46 26.5t48 32t39.5 34t37 41t23.5 45t16 53zM946 311l-325 402q-158 -81 -226.5 -154.5t-83.5 -183.5
q-18 -120 59 -198.5t199 -78.5q108 0 193.5 54t183.5 159z" />
    <glyph glyph-name="quotesingle" unicode="'" horiz-adv-x="532" 
d="M340 969l70 481h122l-69 -481h-123z" />
    <glyph glyph-name="parenleft" unicode="(" horiz-adv-x="532" 
d="M618 1507l101 -69q-173 -226 -264.5 -416.5t-126.5 -431.5q-33 -238 3 -421t142 -415l-119 -82q-110 191 -152.5 430t-8.5 488q34 240 144 480t281 437z" />
    <glyph glyph-name="parenright" unicode=")" horiz-adv-x="532" 
d="M80 -328l-100 70q173 226 264.5 416.5t124.5 431.5q14 100 15.5 190t-7.5 167.5t-32 159.5t-50.5 154t-69.5 164l119 82q111 -192 153 -430.5t7 -486.5q-33 -239 -143 -480t-281 -438z" />
    <glyph glyph-name="asterisk" unicode="*" horiz-adv-x="909" 
d="M721 1450l-43 -293l301 92l27 -114l-301 -93l149 -247l-111 -74l-151 254l-225 -254l-86 74l219 247l-277 93l60 114l272 -92l43 293h123z" />
    <glyph glyph-name="plus" unicode="+" horiz-adv-x="1363" 
d="M903 1143l-63 -461h460l-18 -123h-461l-63 -461h-123l63 461h-460l18 123h461l63 461h123z" />
    <glyph glyph-name="comma" unicode="," horiz-adv-x="569" 
d="M463 195l-234 -482h-137l205 482h166z" />
    <glyph glyph-name="hyphen" unicode="-" horiz-adv-x="681" 
d="M682 559l-18 -135h-527l19 135h526z" />
    <glyph glyph-name="period" unicode="." horiz-adv-x="569" 
d="M410 98q-6 -44 -42.5 -77t-84.5 -33t-74.5 33t-20.5 77q6 45 41.5 78t83.5 33t75.5 -33.5t21.5 -77.5z" />
    <glyph glyph-name="slash" unicode="/" horiz-adv-x="757" 
d="M950 1446l-827 -1483l-113 39l830 1485z" />
    <glyph glyph-name="zero" unicode="0" 
d="M776 1475q86 0 154.5 -25t112.5 -67t74 -102.5t44 -125t17.5 -141.5t-1 -145.5t-14.5 -143.5t-25 -143.5t-40.5 -145.5t-57.5 -141.5t-79 -125t-103 -102.5t-131.5 -67t-161.5 -25t-154 25t-112 67t-74 102.5t-43.5 125t-17 141.5t1 145.5t14.5 143.5q15 108 39 203
t71 199t109.5 178t159.5 122t217 48zM758 1339q-347 0 -430 -614q-88 -614 258 -614q65 0 121 22.5t96 58.5t74 89.5t55.5 105t39 117t27 114.5t17.5 107t12.5 107t5 114.5t-6.5 117t-25.5 105t-49 89.5t-80 58.5t-114.5 22.5z" />
    <glyph glyph-name="one" unicode="1" 
d="M918 1450l-205 -1450h-148l178 1266l-292 -230l-76 111l411 303h132z" />
    <glyph glyph-name="two" unicode="2" 
d="M1038 135l-18 -135h-922l25 170l659 588q48 44 77.5 72.5t66.5 72.5t58.5 89.5t27.5 92.5q17 117 -53 185.5t-191 68.5q-109 0 -196.5 -61.5t-125.5 -165.5l-153 16q54 161 184.5 254t298.5 93q89 0 163.5 -24t129 -70t80 -119t12.5 -164q-9 -64 -35.5 -125.5t-56.5 -107
t-83 -101.5t-88.5 -88t-100.5 -88l-521 -453h762z" />
    <glyph glyph-name="three" unicode="3" 
d="M516 692l19 135h75q140 0 238 65.5t117 201.5q17 116 -45 180.5t-189 64.5q-184 0 -299 -159l-121 65q161 230 434 230q178 0 285 -101t82 -276q-15 -115 -98.5 -206.5t-192.5 -125.5l4 -4q121 -26 184 -129t44 -240q-18 -130 -95.5 -226.5t-188.5 -144t-239 -47.5
q-342 0 -415 293l164 47q22 -105 89 -154.5t195 -49.5q127 0 226 80.5t116 205.5q11 79 -10.5 138t-69.5 92t-109 49t-136 16h-64z" />
    <glyph glyph-name="four" unicode="4" 
d="M1057 1450l-137 -971h208l-18 -135h-209l-49 -344h-147l49 344h-627l23 168l718 938h189zM772 479l115 824h-4l-615 -824h504z" />
    <glyph glyph-name="five" unicode="5" 
d="M1157 1450l-20 -135h-594l-70 -436q90 34 201 34q202 0 311.5 -131.5t81.5 -332.5q-29 -209 -186.5 -341.5t-368.5 -132.5q-139 0 -240.5 67t-140.5 191l154 64q31 -87 99 -136.5t161 -49.5q137 0 245 93.5t128 229.5q22 153 -66 248.5t-244 95.5q-151 0 -311 -80
l121 752h739z" />
    <glyph glyph-name="six" unicode="6" 
d="M993 1450l-483 -623l4 -4q36 23 94.5 36t112.5 13q190 0 298.5 -127t80.5 -321q-28 -198 -179 -323.5t-356 -125.5t-320 125.5t-87 323.5q16 111 60 199.5t120 189.5l481 637h174zM305 424q-20 -138 59 -225.5t222 -87.5q142 0 244 87.5t122 225.5t-57.5 225.5
t-220.5 87.5q-142 0 -245.5 -87.5t-123.5 -225.5z" />
    <glyph glyph-name="seven" unicode="7" 
d="M1176 1450l-21 -135l-768 -1315h-166l780 1315h-706l20 135h861z" />
    <glyph glyph-name="eight" unicode="8" 
d="M489 768v4q-91 32 -139 123t-33 201q24 168 157.5 273.5t301.5 105.5t272 -105.5t80 -273.5q-15 -110 -88.5 -201t-173.5 -123v-4q118 -32 177.5 -135.5t39.5 -245.5q-27 -183 -178 -297.5t-340 -114.5q-123 0 -219.5 49.5t-147 145t-32.5 217.5q20 142 108 245.5
t215 135.5zM979 1083q17 111 -47 183.5t-174 72.5t-194 -72t-101 -184q-15 -112 49 -184t174 -72t194 72.5t99 183.5zM938 408q19 129 -55.5 213t-214.5 84q-139 0 -236.5 -84t-116.5 -213t56 -213t215 -84q139 0 236 84t116 213z" />
    <glyph glyph-name="nine" unicode="9" 
d="M350 0l484 623l-5 4q-36 -23 -94 -36t-112 -13q-190 0 -298.5 127t-82.5 321q29 199 179 324t355 125q206 0 321.5 -125.5t86.5 -323.5q-16 -111 -59.5 -200.5t-118.5 -188.5l-482 -637h-174zM1036 1026q20 138 -57.5 225.5t-220.5 87.5q-142 0 -245.5 -87.5
t-123.5 -225.5q-19 -138 59.5 -225.5t221.5 -87.5t245 87.5t121 225.5z" />
    <glyph glyph-name="colon" unicode=":" horiz-adv-x="569" 
d="M516 858q-6 -44 -42.5 -77t-84.5 -33t-74 33t-20 77q6 45 41.5 78t83.5 33t75 -33.5t21 -77.5zM410 98q-6 -44 -42.5 -77t-84.5 -33t-74.5 33t-20.5 77q6 45 41.5 78t83.5 33t75.5 -33.5t21.5 -77.5z" />
    <glyph glyph-name="semicolon" unicode=";" horiz-adv-x="569" 
d="M463 195l-234 -482h-137l205 482h166zM535 858q-6 -44 -42.5 -77t-84.5 -33t-74.5 33t-20.5 77q6 45 41.5 78t83.5 33t75.5 -33.5t21.5 -77.5z" />
    <glyph glyph-name="less" unicode="&#x3c;" horiz-adv-x="1363" 
d="M1366 1155l-16 -123l-936 -411l819 -412l-16 -123l-977 487l14 95z" />
    <glyph glyph-name="equal" unicode="=" horiz-adv-x="1363" 
d="M276 836h1045l-16 -123h-1045zM233 528h1045l-16 -122h-1045z" />
    <glyph glyph-name="greater" unicode="&#x3e;" horiz-adv-x="1363" 
d="M305 1032l17 123l976 -487l-14 -95l-1112 -487l16 123l938 412z" />
    <glyph glyph-name="question" unicode="?" horiz-adv-x="987" 
d="M635 498l-14 -105h-148l25 170q10 62 52 118t96.5 101t109.5 90.5t97 105t52 126.5q14 104 -43.5 169.5t-163.5 65.5q-101 0 -179 -61t-111 -162l-152 19q45 158 171 249t288 91q170 0 266.5 -95.5t73.5 -263.5q-10 -71 -36.5 -128t-61 -95t-74.5 -71.5t-80 -65
t-74.5 -65.5t-59.5 -83.5t-34 -109.5zM629 98q-6 -44 -42.5 -77t-84.5 -33t-74 33t-20 77q6 45 41 78t83 33t75.5 -33.5t21.5 -77.5z" />
    <glyph glyph-name="at" unicode="@" horiz-adv-x="1638" 
d="M1147 838q12 86 -28.5 145t-106.5 59q-96 -4 -187.5 -75t-149 -170.5t-71.5 -196.5q-12 -86 35 -141.5t131 -55.5t170 74.5t140.5 174.5t66.5 186zM1241 997l64 129h114l-252 -577q-24 -52 -34 -105q-2 -16 10 -28.5t33 -12.5q70 0 150.5 63.5t142.5 168.5t77 215
q16 112 -19 212t-106 167.5t-169 107t-205 39.5q-129 0 -256 -54t-225.5 -143.5t-167 -209t-85.5 -244.5q-18 -125 16.5 -244.5t108 -209t185.5 -143.5t241 -54q154 0 304.5 66.5t248.5 181.5h129q-121 -167 -309 -263t-389 -96q-206 0 -368 100.5t-241 276t-49 385.5
q29 210 157.5 385.5t319 276t396.5 100.5q141 0 262 -47t203.5 -128.5t122 -200t20.5 -253.5q-14 -102 -58.5 -195.5t-104.5 -161t-129.5 -118.5t-137 -76.5t-123.5 -25.5q-128 0 -125 120h-4q-65 -58 -128 -89t-146 -31q-130 0 -198.5 85t-49.5 222q15 106 64.5 209.5
t122 185t171 132t203.5 50.5q175 0 209 -168h4z" />
    <glyph glyph-name="A" unicode="A" horiz-adv-x="1404" 
d="M385 381l-213 -381h-172l836 1450h143l426 -1450h-172l-107 381h-741zM883 1278l-424 -762h628z" />
    <glyph glyph-name="B" unicode="B" horiz-adv-x="1290" 
d="M197 0l204 1450h433q75 0 139 -11.5t121 -38.5t94 -68t53.5 -104t5.5 -143q-15 -119 -95 -204t-204 -113l-2 -4q151 -12 226 -108.5t53 -254.5q-5 -36 -20.5 -78.5t-58 -102.5t-103 -106.5t-166.5 -80t-238 -33.5h-442zM528 1315l-69 -500h297q56 0 108 14t99.5 42.5
t80 79.5t41.5 118q0 13 2 32t-4 42.5t-14.5 47t-30 46t-49.5 40t-74.5 28t-103.5 10.5h-283zM442 692l-80 -557h283q169 0 285 69.5t135 205.5q20 141 -62 211.5t-260 70.5h-301z" />
    <glyph glyph-name="C" unicode="C" horiz-adv-x="1441" 
d="M1315 315l108 -86q-93 -117 -247 -191.5t-328 -74.5q-213 0 -371.5 98t-232 272.5t-43.5 391.5q23 162 100 304t191.5 242.5t262.5 158t308 57.5q144 0 269.5 -57t199.5 -173l-141 -96q-36 74 -136 132.5t-211 58.5q-136 0 -257 -51t-208 -137.5t-144 -199.5t-75 -239
t7.5 -239t88.5 -199.5t169.5 -137.5t242.5 -51q275 0 447 217z" />
    <glyph glyph-name="D" unicode="D" horiz-adv-x="1517" 
d="M176 0l205 1450h481q92 0 179.5 -20.5t167.5 -60t144.5 -101.5t108 -140t60.5 -182t0 -221q-20 -140 -81.5 -260t-148.5 -204t-194 -144t-219 -88.5t-222 -28.5h-481zM508 1315l-166 -1180h287q129 0 241.5 32.5t195.5 89t146 132t100 160.5t50 176t0 176t-55 160.5
t-109 132t-170.5 89t-232.5 32.5h-287z" />
    <glyph glyph-name="E" unicode="E" horiz-adv-x="1214" 
d="M440 686l-78 -551h777l-19 -135h-923l204 1450h899l-20 -135h-752l-69 -494h702l-18 -135h-703z" />
    <glyph glyph-name="F" unicode="F" 
d="M440 686l-96 -686h-147l204 1450h875l-21 -135h-727l-69 -494h676l-19 -135h-676z" />
    <glyph glyph-name="G" unicode="G" horiz-adv-x="1593" 
d="M1561 1292l-127 -108q-136 168 -390 168q-136 0 -257 -51t-208 -137.5t-144 -199.5t-75 -239t7.5 -239t88.5 -199.5t169.5 -137.5t242.5 -51q218 0 416 103l68 485h-346l18 135h494l-99 -710q-129 -70 -282.5 -109t-288.5 -39q-213 0 -371.5 98t-232 272.5t-43.5 391.5
q23 162 100 304t191.5 242.5t262.5 158t308 57.5q330 0 498 -195z" />
    <glyph glyph-name="H" unicode="H" horiz-adv-x="1478" 
d="M197 0l204 1450h148l-90 -629h790l90 629h148l-205 -1450h-147l96 686h-791l-96 -686h-147z" />
    <glyph glyph-name="I" unicode="I" horiz-adv-x="540" 
d="M549 1450l-205 -1450h-147l204 1450h148z" />
    <glyph glyph-name="J" unicode="J" horiz-adv-x="987" 
d="M66 266l153 31q8 -94 58.5 -146.5t144.5 -52.5q62 0 111.5 21t81.5 54t55.5 82.5t36 97t20.5 106.5l141 991h148l-150 -1053q-9 -62 -29 -120.5t-58.5 -116.5t-89.5 -101t-126.5 -69.5t-165.5 -26.5q-152 0 -239.5 78t-91.5 225z" />
    <glyph glyph-name="K" unicode="K" horiz-adv-x="1290" 
d="M549 1450l-90 -629h20l772 629h211l-825 -657l661 -793h-217l-608 748h-24l-105 -748h-147l204 1450h148z" />
    <glyph glyph-name="L" unicode="L" horiz-adv-x="1024" 
d="M549 1450l-187 -1315h676l-18 -135h-823l204 1450h148z" />
    <glyph glyph-name="M" unicode="M" horiz-adv-x="1822" 
d="M627 1450l323 -1180l656 1180h225l-205 -1450h-147l176 1253h-4l-701 -1253h-78l-348 1253h-4l-176 -1253h-147l204 1450h226z" />
    <glyph glyph-name="N" unicode="N" horiz-adv-x="1593" 
d="M586 1450l690 -1229h4l174 1229h148l-205 -1450h-185l-690 1241h-4l-174 -1241h-147l204 1450h185z" />
    <glyph glyph-name="O" unicode="O" horiz-adv-x="1708" 
d="M1712 725q-23 -162 -100.5 -304t-192 -242.5t-263 -158t-308.5 -57.5q-213 0 -371.5 98t-232 272.5t-43.5 391.5q23 162 100 304t191.5 242.5t262.5 158t308 57.5q213 0 372 -98t233 -272.5t44 -391.5zM1552 725q18 126 -7.5 239t-88.5 199.5t-169.5 137.5t-242.5 51
t-257 -51t-208 -137.5t-144 -199.5t-75 -239t7.5 -239t88.5 -199.5t169.5 -137.5t242.5 -51t257 51t208 137.5t144 199.5t75 239z" />
    <glyph glyph-name="P" unicode="P" horiz-adv-x="1175" 
d="M197 0l204 1450h422q226 0 337.5 -98t84.5 -289q-27 -192 -166.5 -290.5t-365.5 -98.5h-275l-94 -674h-147zM528 1315l-69 -506h237q186 0 279.5 70t109.5 184t-58.5 183t-260.5 69h-238z" />
    <glyph glyph-name="Q" unicode="Q" horiz-adv-x="1708" 
d="M362 743q-17 -121 7.5 -231t85 -194t163 -133.5t232.5 -49.5t246 49.5t200 133.5t139 194t72 231t-7.5 231t-84 194t-161.5 134t-232 50t-247 -50t-201 -134t-139.5 -194t-72.5 -231zM1679 135l-18 -135h-830q-207 0 -361 95.5t-225 265.5t-42 382q30 212 149 382.5
t300 266t388 95.5q155 0 282.5 -56t211 -154t120 -236.5t13.5 -297.5q-29 -201 -134.5 -357t-289.5 -247l-2 -4h438z" />
    <glyph glyph-name="R" unicode="R" horiz-adv-x="1214" 
d="M438 674l-94 -674h-147l204 1450h447q226 0 337.5 -98t84.5 -289q-22 -155 -134.5 -257.5t-289.5 -117.5l321 -688h-180l-303 674h-246zM528 1315l-69 -506h262q186 0 279.5 70t109.5 184t-58.5 183t-260.5 69h-263z" />
    <glyph glyph-name="S" unicode="S" 
d="M1196 1311l-143 -101q-74 142 -260 142q-80 0 -152 -26.5t-127.5 -87.5t-67.5 -148q-9 -62 10 -109.5t57.5 -77.5t91 -53.5t111.5 -43.5t117.5 -41.5t110 -53t88.5 -73t53.5 -107t4.5 -148.5q-13 -95 -67 -176t-130 -133.5t-164.5 -81.5t-175.5 -29q-139 0 -250 52.5
t-176 162.5l147 96q36 -82 115.5 -129t190.5 -47q75 0 148.5 29.5t130.5 91.5t69 143q9 65 -9.5 114.5t-57.5 80t-91.5 54.5t-111.5 43t-117.5 40t-110 52t-88.5 72t-53 106.5t-4 150.5q14 102 65 182.5t124.5 129.5t159.5 74.5t177 25.5q128 0 221.5 -40.5t163.5 -135.5z
" />
    <glyph glyph-name="T" unicode="T" horiz-adv-x="1175" 
d="M846 1315l-184 -1315h-148l184 1315h-485l20 135h1119l-21 -135h-485z" />
    <glyph glyph-name="U" unicode="U" horiz-adv-x="1404" 
d="M1438 1450l-129 -909q-9 -65 -27 -127.5t-49.5 -129.5t-80 -123t-111.5 -101.5t-151.5 -71t-193.5 -25.5q-90 0 -163 19.5t-122 52.5t-84 79.5t-53.5 97t-27 109.5t-7.5 112t9 108l129 909h147l-127 -893q-6 -63 -7.5 -114.5t8.5 -93.5t22 -75.5t33 -59t41 -44t46 -31.5
t48 -21t47.5 -12.5t44 -6t37.5 -1.5q42 0 84.5 7t103.5 35t109 74.5t90.5 135t58.5 207.5l127 893h148z" />
    <glyph glyph-name="V" unicode="V" horiz-adv-x="1251" 
d="M362 1450l287 -1229h4l650 1229h159l-770 -1450h-147l-346 1450h163z" />
    <glyph glyph-name="W" unicode="W" horiz-adv-x="1933" 
d="M369 1450l172 -1241h4l540 1241h177l188 -1241h4l520 1241h164l-633 -1450h-172l-190 1241h-4l-539 -1241h-172l-223 1450h164z" />
    <glyph glyph-name="X" unicode="X" horiz-adv-x="1290" 
d="M457 1450l313 -580l487 580h185l-590 -688l426 -762h-195l-350 657l-536 -657h-185l637 762l-391 688h199z" />
    <glyph glyph-name="Y" unicode="Y" horiz-adv-x="1175" 
d="M750 625l-88 -625h-148l88 625l-426 825h184l336 -684l529 684h184z" />
    <glyph glyph-name="Z" unicode="Z" 
d="M1284 1450l-18 -123l-1014 -1192h858l-18 -135h-1045l16 123l1016 1192h-835l20 135h1020z" />
    <glyph glyph-name="bracketleft" unicode="[" horiz-adv-x="532" 
d="M676 1499l-17 -110h-196l-223 -1598h196l-16 -110h-332l256 1818h332z" />
    <glyph glyph-name="backslash" unicode="\" horiz-adv-x="757" 
d="M623 -37l-410 1483l123 41l412 -1485z" />
    <glyph glyph-name="bracketright" unicode="]" horiz-adv-x="532" 
d="M23 -319l16 110h197l223 1598h-197l17 110h331l-256 -1818h-331z" />
    <glyph glyph-name="asciicircum" unicode="^" horiz-adv-x="1363" 
d="M244 563l594 887h98l344 -887h-127l-289 740l-493 -740h-127z" />
    <glyph glyph-name="underscore" unicode="_" horiz-adv-x="1024" 
d="M-37 -256l14 102h1024l-14 -102h-1024z" />
    <glyph glyph-name="grave" unicode="`" horiz-adv-x="491" 
d="M412 1155l-228 295h187l161 -295h-120z" />
    <glyph glyph-name="a" unicode="a" horiz-adv-x="1062" 
d="M776 588h68l4 24q17 125 -35 186.5t-176 61.5q-170 0 -309 -112l-68 96q154 139 424 139q72 0 131.5 -21t102.5 -61.5t62 -106.5t7 -151l-59 -428q-15 -111 -15 -215h-131q-3 68 11 156h-5q-71 -94 -159 -137.5t-205 -43.5q-88 0 -157 30.5t-107 96t-25 154.5
q9 64 38 116t67.5 86t93.5 59t106.5 38.5t116.5 21t112.5 9.5t106.5 2zM829 477h-69q-447 0 -475 -203q-9 -60 20 -101.5t75.5 -58t104.5 -16.5q141 0 227.5 87.5t106.5 222.5z" />
    <glyph glyph-name="b" unicode="b" horiz-adv-x="1251" 
d="M147 0l218 1548h135l-105 -749h4q75 91 184.5 137.5t213.5 46.5q223 0 347 -143t93 -361t-195 -361t-387 -143q-104 0 -200.5 47t-145.5 138h-4l-22 -160h-136zM1090 479q24 164 -61 272.5t-249 108.5q-165 0 -289 -109.5t-147 -271.5t71 -271.5t259 -109.5
q164 0 278 108t138 273z" />
    <glyph glyph-name="c" unicode="c" horiz-adv-x="987" 
d="M1071 817l-123 -84q-28 55 -86.5 91t-134.5 36q-164 3 -277 -105t-137 -276t59.5 -276t248.5 -105q76 0 145 36t111 91l100 -84q-81 -81 -178 -122.5t-197 -43.5q-230 -3 -348.5 140t-87.5 364t189.5 364t387.5 140q100 -2 185.5 -43.5t142.5 -122.5z" />
    <glyph glyph-name="d" unicode="d" horiz-adv-x="1251" 
d="M1321 1548l-217 -1548h-135l22 160h-4q-75 -91 -185 -138t-214 -47q-223 0 -346 143t-92 361t193.5 361t385.5 143q104 0 201.5 -46.5t146.5 -137.5h4l105 749h135zM297 479q-24 -165 60.5 -273t248.5 -108q165 0 289 109.5t147 271.5t-70.5 271.5t-258.5 109.5
q-164 0 -278 -108t-138 -273z" />
    <glyph glyph-name="e" unicode="e" 
d="M1102 442h-799q-8 -146 78 -245t227 -99q101 0 188.5 47.5t141.5 118.5l92 -86q-189 -203 -440 -203q-141 0 -245 65.5t-151.5 180.5t-27.5 258q31 216 189.5 360t363.5 144q141 -1 238 -66.5t135.5 -173t19.5 -239.5zM324 553h647q19 138 -53 222.5t-216 84.5
q-131 0 -246 -94t-132 -213z" />
    <glyph glyph-name="f" unicode="f" horiz-adv-x="606" 
d="M729 958l-18 -122h-228l-116 -836h-136l117 836h-203l19 122h203l36 263q49 352 371 352q50 0 115 -14l-41 -123q-58 14 -103 14q-54 0 -92.5 -18t-61.5 -53.5t-35 -76.5t-19 -98l-35 -246h227z" />
    <glyph glyph-name="g" unicode="g" horiz-adv-x="1251" 
d="M78 -299l117 106q48 -81 138 -128.5t204 -47.5q100 0 177.5 29.5t127.5 82t79.5 118.5t41.5 147l22 172h-4q-73 -92 -172.5 -136t-210.5 -44q-137 0 -242.5 62.5t-157 174.5t-32.5 250q31 211 189 353.5t368 142.5q236 0 346 -184h4l23 159h135l-133 -950
q-10 -70 -31 -133t-65.5 -132.5t-106 -119.5t-160.5 -82.5t-223 -32.5q-281 0 -434 193zM315 492q-22 -152 65.5 -260.5t237.5 -108.5q153 0 276 104t140 265q22 156 -62.5 262t-248.5 106q-150 0 -268 -108t-140 -260z" />
    <glyph glyph-name="h" unicode="h" 
d="M147 0l218 1548h135l-105 -743h4q55 78 153 128t193 50q180 0 257.5 -97t52.5 -278l-86 -608h-135l73 530q24 168 -22 249t-191 81q-10 0 -25.5 -2t-46 -10t-60 -22t-64 -42.5t-62.5 -65.5t-51 -95.5t-33 -130.5l-69 -492h-136z" />
    <glyph glyph-name="i" unicode="i" horiz-adv-x="491" 
d="M449 958l-136 -958h-135l135 958h136zM530 1327q-6 -41 -40 -69.5t-72 -28.5t-64 28.5t-20 69.5t40 69.5t72 28.5t64 -28.5t20 -69.5z" />
    <glyph glyph-name="j" unicode="j" horiz-adv-x="491" 
d="M-129 -471l35 117l6 -2q43 -13 70 -13q47 0 80.5 17.5t51.5 50.5t26.5 62.5t13.5 70.5l159 1126h136l-162 -1148q-13 -91 -36 -140q-74 -162 -278 -162q-53 0 -102 21zM530 1327q-6 -41 -40 -69.5t-72 -28.5t-64 28.5t-20 69.5t40 69.5t72 28.5t64 -28.5t20 -69.5z" />
    <glyph glyph-name="k" unicode="k" horiz-adv-x="987" 
d="M500 1548l-144 -1022l514 432h203l-538 -438l454 -520h-209l-426 504l-71 -504h-136l218 1548h135z" />
    <glyph glyph-name="l" unicode="l" horiz-adv-x="491" 
d="M530 1548l-217 -1548h-135l217 1548h135z" />
    <glyph glyph-name="m" unicode="m" horiz-adv-x="1744" 
d="M147 0l105 745q6 41 20 213h146l-21 -145h4q58 80 150 125t182 45q43 0 82.5 -8.5t80 -29t71 -61.5t45.5 -100q53 91 148 145t194 54q180 0 257 -97t52 -278l-86 -608h-135l78 559q23 153 -21 227t-178 74q-73 0 -131 -29t-95.5 -79.5t-60.5 -111t-33 -130.5l-71 -510
h-135l77 559q23 153 -20.5 227t-177.5 74q-18 0 -42 -4t-70.5 -25.5t-85 -57t-74.5 -109.5t-50 -172l-69 -492h-136z" />
    <glyph glyph-name="n" unicode="n" 
d="M272 958h140q-2 -60 -17 -153h4q55 78 153 128t193 50q180 0 257.5 -97t52.5 -278l-86 -608h-135l73 530q24 168 -22 249t-191 81q-10 0 -25.5 -2t-46 -10t-60 -22t-64 -42.5t-62.5 -65.5t-51 -95.5t-33 -130.5l-69 -492h-136l105 748q4 28 20 210z" />
    <glyph glyph-name="o" unicode="o" horiz-adv-x="1214" 
d="M1184 479q-31 -218 -195 -361t-387 -143q-146 0 -253 65.5t-155 180.5t-28 258q31 218 193.5 361t383.5 143q223 0 347.5 -143t93.5 -361zM1036 479q24 165 -60.5 273t-248.5 108q-163 0 -276.5 -108t-137.5 -273q-24 -164 60.5 -272.5t247.5 -108.5q164 0 277.5 108
t137.5 273z" />
    <glyph glyph-name="p" unicode="p" horiz-adv-x="1251" 
d="M66 -590l217 1548h135l-23 -159h4q75 91 184.5 137.5t213.5 46.5q223 0 347 -143t93 -361t-195 -361t-387 -143q-104 0 -200.5 47t-145.5 138h-4l-104 -750h-135zM1090 479q24 164 -61 272.5t-249 108.5q-165 0 -289 -109.5t-147 -271.5t71 -271.5t259 -109.5
q164 0 278 108t138 273z" />
    <glyph glyph-name="q" unicode="q" horiz-adv-x="1251" 
d="M1239 958l-217 -1548h-135l104 750h-4q-75 -91 -185 -138t-214 -47q-223 0 -346 143t-92 361t193.5 361t385.5 143q104 0 201.5 -46.5t146.5 -137.5h4l23 159h135zM297 479q-24 -165 60.5 -273t248.5 -108q165 0 289 109.5t147 271.5t-70.5 271.5t-258.5 109.5
q-164 0 -278 -108t-138 -273z" />
    <glyph glyph-name="r" unicode="r" horiz-adv-x="679" 
d="M162 0l92 659q3 24 35 299h133l-25 -178h4q45 86 131 144.5t203 58.5q57 0 101 -12l-48 -133q-23 10 -75 10q-73 0 -136.5 -29.5t-104.5 -76t-66.5 -98.5t-32.5 -103l-76 -541h-135z" />
    <glyph glyph-name="s" unicode="s" horiz-adv-x="872" 
d="M891 811l-133 -80q-48 129 -189 129q-80 0 -144.5 -36t-74.5 -107q-9 -64 31 -96.5t137 -55.5l133 -33q99 -24 154.5 -94t42.5 -168q-11 -75 -51.5 -133.5t-99 -93t-126 -51.5t-139.5 -17q-242 0 -342 187l129 80q72 -144 232 -144q92 0 164 41t83 119q8 66 -33.5 99
t-127.5 55l-127 30q-26 7 -49.5 15t-58.5 28.5t-58 46t-37 68t-6 94.5q13 95 74 162.5t143 97t176 29.5q107 0 186 -41.5t111 -130.5z" />
    <glyph glyph-name="t" unicode="t" horiz-adv-x="679" 
d="M778 958l-18 -122h-277l-77 -566q-14 -100 15 -136t99 -36q75 0 144 37l-11 -125q-81 -35 -188 -35q-43 0 -79.5 11t-70 37t-48 79.5t-3.5 128.5l84 605h-203l19 122h203l36 271h136l-37 -271h276z" />
    <glyph glyph-name="u" unicode="u" 
d="M979 0h-139q3 69 16 154h-4q-57 -78 -155 -128.5t-193 -50.5q-180 0 -256 96.5t-51 278.5l86 608h135l-76 -530q-23 -168 23.5 -249t191.5 -81q10 0 25.5 2t46 10.5t60 22.5t64 42t62.5 65.5t51 96t33 130.5l70 491h135l-107 -747q-3 -23 -6 -58t-6.5 -82t-5.5 -71z" />
    <glyph glyph-name="v" unicode="v" horiz-adv-x="987" 
d="M1094 958l-525 -958h-151l-254 958h162l190 -806h4l420 806h154z" />
    <glyph glyph-name="w" unicode="w" horiz-adv-x="1478" 
d="M164 958h160l110 -778h4l367 778h139l146 -778h4l331 778h160l-438 -958h-152l-143 786h-4l-365 -786h-151z" />
    <glyph glyph-name="x" unicode="x" horiz-adv-x="987" 
d="M0 0l467 512l-285 446h185l215 -358l305 358h168l-398 -446l330 -512h-184l-262 420l-369 -420h-172z" />
    <glyph glyph-name="y" unicode="y" horiz-adv-x="987" 
d="M338 958l188 -792l406 792h164l-650 -1208q-64 -120 -141 -181t-194 -61q-74 0 -123 15l32 131q42 -23 101 -23q67 0 115 42.5t94 129.5l94 185l-256 970h170z" />
    <glyph glyph-name="z" unicode="z" horiz-adv-x="872" 
d="M940 958l-14 -98l-666 -737h582l-17 -123h-778l14 98l664 738h-532l18 122h729z" />
    <glyph glyph-name="braceleft" unicode="{" horiz-adv-x="532" 
d="M98 528l19 123q73 0 136 62.5t77 165.5l51 364q20 135 90.5 195.5t167.5 60.5h131l-18 -123h-115q-29 0 -50.5 -11t-34 -25.5t-21 -40.5t-12 -44.5t-7.5 -48.5l-49 -352q-8 -56 -29.5 -102.5t-46.5 -74t-54 -47.5t-50.5 -28t-38.5 -10l-2 -4q17 -2 36 -10.5t43.5 -27
t40.5 -48t25.5 -73.5t-0.5 -103l-49 -353q-3 -25 -4.5 -40t-1.5 -38t5 -37t13.5 -28t26 -20.5t41.5 -6.5h114l-18 -122h-131q-98 0 -151 60.5t-33 195.5l51 364q13 103 -33 165t-119 62z" />
    <glyph glyph-name="bar" unicode="|" horiz-adv-x="739" 
d="M414 1706h118v-2273h-118v2273z" />
    <glyph glyph-name="braceright" unicode="}" horiz-adv-x="532" 
d="M600 651l-18 -123q-73 0 -136.5 -62.5t-76.5 -164.5l-52 -364q-20 -135 -90.5 -195.5t-167.5 -60.5h-131l19 122h114q29 0 50.5 11t34 25.5t21 40.5t12 44.5t7.5 48.5l50 353q8 56 29.5 102.5t46.5 74t54 47.5t50.5 28t38.5 10l2 4q-17 2 -36 10.5t-44 27t-41 48
t-25.5 73.5t0.5 103l49 352q3 26 4.5 40.5t2 37.5t-4.5 36.5t-14 28t-26 21t-41 6.5h-115l18 123h131q98 0 151.5 -60.5t33.5 -195.5l-51 -364q-14 -103 32 -165.5t119 -62.5z" />
    <glyph glyph-name="asciitilde" unicode="~" horiz-adv-x="1363" 
d="M1202 754l74 -82q-35 -40 -62 -67.5t-67 -59t-84.5 -48t-91.5 -16.5q-67 0 -102.5 10t-102.5 50q-12 7 -45.5 29.5t-53 33.5t-49.5 22t-57 11q-102 0 -225 -150l-74 82q35 40 62 67.5t67 59t84.5 48t91.5 16.5q67 0 102.5 -10t102.5 -50q15 -9 47 -30t52 -33t49.5 -22.5
t56.5 -10.5q102 0 225 150z" />
    <glyph glyph-name="uni00A0" unicode="&#xa0;" horiz-adv-x="569" 
 />
    <glyph glyph-name="exclamdown" unicode="&#xa1;" horiz-adv-x="569" 
d="M145 -467l148 1057h147l-147 -1057h-148zM299 885q6 44 41.5 77t83.5 33t75 -33t21 -77t-42.5 -77.5t-84.5 -33.5t-74 33t-20 78z" />
    <glyph glyph-name="cent" unicode="&#xa2;" 
d="M604 104l107 750q-134 -23 -225 -126t-111 -249q-21 -147 40.5 -249.5t188.5 -125.5zM809 858l-107 -758q71 4 134.5 39t101.5 86l100 -84q-151 -154 -354 -164l-16 -124h-99l19 129q-195 21 -292 158.5t-69 338.5t163.5 339t336.5 159l18 129h99l-19 -125
q198 -10 308 -164l-123 -84q-24 51 -77.5 86t-123.5 39z" />
    <glyph glyph-name="sterling" unicode="&#xa3;" 
d="M987 809l-18 -123h-344l-80 -563h518l-16 -123h-875l16 123h209l80 563h-196l18 123h197l24 178q12 82 34 151t61.5 132.5t94 108t134.5 70.5t178 26q201 0 301 -123l-111 -105q-81 105 -213 105q-72 0 -129.5 -26.5t-91.5 -65.5t-59 -93t-36 -98.5t-17 -93.5l-23 -166
h344z" />
    <glyph glyph-name="currency" unicode="&#xa4;" 
d="M1237 1145l-125 -109q93 -141 66 -311q-21 -172 -154 -311l94 -109l-102 -90l-94 109q-156 -109 -322 -109q-168 0 -293 109l-123 -109l-78 90l123 109q-90 141 -63 311q21 172 151 311l-92 109l103 90l92 -109q156 109 323 109q166 0 291 -109l125 109zM301 725
q-23 -160 69.5 -273.5t247.5 -113.5q153 0 277 113.5t147 273.5q22 160 -70 273.5t-245 113.5q-155 0 -279.5 -113.5t-146.5 -273.5z" />
    <glyph glyph-name="yen" unicode="&#xa5;" 
d="M225 457h334l23 157l-11 25h-319l14 111h254l-319 700h174l301 -696l498 696h174l-519 -700h252l-14 -111h-319l-19 -25l-22 -157h333l-14 -111h-334l-49 -346h-147l49 346h-334z" />
    <glyph glyph-name="brokenbar" unicode="&#xa6;" horiz-adv-x="737" 
d="M414 1536h116v-797h-116v797zM414 397h116v-792h-116v792z" />
    <glyph glyph-name="section" unicode="&#xa7;" 
d="M1108 1282l-129 -61q-19 52 -68.5 91.5t-134.5 39.5q-66 0 -116.5 -22t-76.5 -54.5t-39 -59.5t-16 -49q-10 -68 26.5 -110t113.5 -84l209 -115q183 -102 157 -285q-22 -172 -215 -268q69 -54 93 -111.5t12 -144.5q-11 -83 -52 -148.5t-101.5 -105t-131 -60t-147.5 -20.5
q-142 0 -241 60t-130 176l143 65q19 -90 86.5 -134t159.5 -44q44 0 85 10.5t79.5 33.5t66 65.5t35.5 99.5q16 109 -117 180l-262 138q-79 41 -119.5 107.5t-27.5 158.5q27 182 252 274q-59 44 -81 74q-56 71 -42 172q14 102 75 177t146 111t182 36q131 0 218 -55t108 -138z
M612 827l-37 -14q-161 -65 -176 -172q-3 -21 0.5 -41t9.5 -34.5t21 -30.5t24.5 -25t32 -22.5t31.5 -18.5t35 -17.5t31 -15.5l125 -65q63 24 115.5 74t60.5 108q6 43 -5.5 78t-38.5 61.5t-54 44.5t-66 37z" />
    <glyph glyph-name="dieresis" unicode="&#xa8;" horiz-adv-x="491" 
d="M131 1325q6 41 40.5 73t78.5 32t70 -32t20 -73t-40.5 -72.5t-78.5 -31.5q-45 0 -70.5 31.5t-19.5 72.5zM524 1325q6 41 40.5 73t78.5 32t70 -32t20 -73t-40.5 -72.5t-78.5 -31.5q-45 0 -70.5 31.5t-19.5 72.5z" />
    <glyph glyph-name="copyright" unicode="&#xa9;" horiz-adv-x="1638" 
d="M1198 578h117q-55 -147 -171 -233.5t-257 -86.5q-135 0 -231.5 61t-137.5 167.5t-22 238.5q28 206 168 335.5t348 129.5q152 0 247 -80.5t95 -230.5h-115q-5 87 -71.5 143.5t-170.5 56.5q-152 0 -255 -99.5t-124 -250.5q-21 -146 58 -253t225 -107q103 0 185 59.5
t112 149.5zM152 721q23 161 105 304t200 244t267 159.5t304 58.5t288 -58.5t223 -158.5t131.5 -241.5t19.5 -299.5q-22 -161 -104 -304t-200.5 -244t-268 -159.5t-304.5 -58.5t-287.5 58.5t-222 158.5t-131.5 241.5t-20 299.5zM274 721q-25 -179 40.5 -328t201.5 -234
t313 -85q132 0 258.5 50.5t225 137t166.5 208.5t88 259q25 180 -40.5 329t-201.5 233.5t-313 84.5q-132 0 -258.5 -50t-225 -136.5t-167 -208.5t-87.5 -260z" />
    <glyph glyph-name="ordfeminine" unicode="&#xaa;" horiz-adv-x="690" 
d="M401 868q-90 0 -146.5 44t-45.5 126q14 101 103.5 153t283.5 52h45l2 17q9 56 -21 86t-94 30q-104 0 -190 -61l-55 76q101 84 256 84q72 0 123 -19t74 -49t31 -59t5 -58l-41 -280q-1 -8 -8 -129h-111l4 73h-2q-70 -86 -213 -86zM629 1145h-27q-254 0 -268 -101
q-6 -37 26.5 -57t81.5 -20q162 0 187 178z" />
    <glyph glyph-name="guillemotleft" unicode="&#xab;" horiz-adv-x="987" 
d="M608 852l-284 -360l184 -361l-107 -68l-225 429l346 428zM981 852l-285 -360l185 -361l-107 -68l-225 429l346 428z" />
    <glyph glyph-name="logicalnot" unicode="&#xac;" horiz-adv-x="1363" 
d="M1321 836l-80 -570h-123l64 447h-922l16 123h1045z" />
    <glyph glyph-name="uni00AD" unicode="&#xad;" horiz-adv-x="681" 
d="M682 559l-18 -135h-527l19 135h526z" />
    <glyph glyph-name="registered" unicode="&#xae;" horiz-adv-x="1638" 
d="M573 279l125 882h324q159 0 226 -61.5t48 -192.5q-16 -112 -87 -170t-179 -69l199 -389h-133l-189 378h-157l-54 -378h-123zM805 1051l-39 -283h152q37 0 61 1t55.5 5.5t52 14t40.5 25t32 40.5t17 59q5 35 -4 61t-25.5 40.5t-43 23t-51.5 11t-57 2.5h-190zM152 721
q23 161 105 304t200 244t267 159.5t304 58.5t288 -58.5t223 -158.5t131.5 -241.5t19.5 -299.5q-22 -161 -104 -304t-200.5 -244t-268 -159.5t-304.5 -58.5t-287.5 58.5t-222 158.5t-131.5 241.5t-20 299.5zM274 721q-25 -179 40.5 -328t201.5 -234t313 -85q132 0 258.5 50.5
t225 137t166.5 208.5t88 259q25 180 -40.5 329t-201.5 233.5t-313 84.5q-132 0 -258.5 -50t-225 -136.5t-167 -208.5t-87.5 -260z" />
    <glyph glyph-name="macron" unicode="&#xaf;" horiz-adv-x="491" 
d="M711 1339l-17 -110h-553l17 110h553z" />
    <glyph glyph-name="degree" unicode="&#xb0;" horiz-adv-x="819" 
d="M879 1169q-19 -132 -118 -218.5t-231 -86.5t-206.5 86.5t-55.5 218.5t117.5 219t230.5 87t207 -87t56 -219zM780 1169q12 86 -40 146.5t-138 60.5t-154.5 -60.5t-80.5 -146.5t40 -146t138 -60t154.5 60t80.5 146z" />
    <glyph glyph-name="plusminus" unicode="&#xb1;" horiz-adv-x="1363" 
d="M260 711l16 123h461l45 319h123l-45 -319h461l-16 -123h-461l-43 -310h-123l43 310h-461zM174 98l16 123h1045l-16 -123h-1045z" />
    <glyph glyph-name="twosuperior" unicode="&#xb2;" horiz-adv-x="739" 
d="M768 702l-14 -110h-600l16 117l397 335q43 38 65.5 59t49 61t31.5 77q7 49 -36.5 86t-101.5 37q-65 0 -119 -33t-77 -82l-113 19q33 98 120 152.5t198 54.5q121 0 194.5 -59t59.5 -167q-5 -38 -22.5 -75.5t-36 -64t-54 -61.5t-56.5 -53t-65 -53l-301 -240h465z" />
    <glyph glyph-name="threesuperior" unicode="&#xb3;" horiz-adv-x="739" 
d="M406 989l14 111h49q89 0 152.5 35.5t72.5 101.5q7 55 -29.5 91t-99.5 36q-60 0 -102 -20t-88 -74l-86 67q61 74 130.5 106t158.5 32q115 0 185 -61t56 -165q-10 -70 -65 -125t-131 -77v-5q89 -15 131.5 -73t31.5 -140q-17 -116 -112 -182.5t-223 -66.5q-225 0 -275 176
l115 61q16 -64 57.5 -95.5t124.5 -31.5q61 0 122.5 44.5t68.5 96.5q3 27 -3 52t-25 50t-63 40.5t-108 15.5h-59z" />
    <glyph glyph-name="acute" unicode="&#xb4;" horiz-adv-x="491" 
d="M717 1450l-314 -295h-120l247 295h187z" />
    <glyph glyph-name="mu" unicode="&#xb5;" 
d="M82 -467l201 1425h135l-76 -530q-25 -180 22 -255t193 -75q127 0 222.5 98.5t119.5 270.5l70 491h135l-107 -747q-4 -31 -7 -66.5t-6 -78t-5 -66.5h-145l22 156h-4q-57 -75 -156.5 -128t-191.5 -53q-139 0 -217 60l-70 -502h-135z" />
    <glyph glyph-name="paragraph" unicode="&#xb6;" horiz-adv-x="1228" 
d="M1255 1450l-241 -1708h-135l225 1597h-254l-225 -1597h-136l127 905q-186 0 -291 110t-81 271q28 198 168.5 310t357.5 112h485z" />
    <glyph glyph-name="periodcentered" unicode="&#xb7;" horiz-adv-x="569" 
d="M485 643q-6 -45 -41.5 -78t-83.5 -33t-75 33.5t-21 77.5t42.5 77.5t84.5 33.5t74 -33t20 -78z" />
    <glyph glyph-name="cedilla" unicode="&#xb8;" horiz-adv-x="491" 
d="M319 0l-108 -123l2 -2q44 14 76 14q65 0 106 -41.5t31 -111.5q-13 -88 -89.5 -134t-170.5 -46q-108 0 -193 49l43 73q62 -36 146 -36q51 0 92.5 22.5t48.5 69.5q1 12 -1.5 24t-11 26t-28.5 23t-49 9q-40 0 -96 -23l-33 35l152 172h83z" />
    <glyph glyph-name="onesuperior" unicode="&#xb9;" horiz-adv-x="739" 
d="M666 1462l-121 -870h-123l104 747l-186 -137l-49 78l264 182h111z" />
    <glyph glyph-name="ordmasculine" unicode="&#xba;" horiz-adv-x="788" 
d="M889 1169q-19 -130 -123.5 -215.5t-249.5 -85.5q-144 0 -226 86t-63 215q19 133 124 219.5t249 86.5q146 0 227 -86.5t62 -219.5zM766 1169q12 86 -38.5 146.5t-141.5 60.5q-89 0 -156.5 -60.5t-79.5 -146.5q-11 -85 39 -143.5t139 -58.5q91 0 159 59t79 143z" />
    <glyph glyph-name="guillemotright" unicode="&#xbb;" horiz-adv-x="987" 
d="M516 131l287 361l-187 360l107 68l227 -428l-348 -429zM143 131l287 361l-186 360l106 68l228 -428l-349 -429z" />
    <glyph glyph-name="onequarter" unicode="&#xbc;" horiz-adv-x="1708" 
d="M1577 870l-80 -567h123l-16 -110h-123l-27 -193h-123l27 193h-393l18 126l444 551h150zM412 -66l-99 66l1137 1516l96 -64zM1374 303l62 445h-4l-340 -445h282zM686 1462l-121 -870h-123l105 747l-187 -137l-49 78l264 182h111z" />
    <glyph glyph-name="onehalf" unicode="&#xbd;" horiz-adv-x="1708" 
d="M360 -66l-98 66l1137 1516l96 -64zM635 1462l-121 -870h-123l105 747l-187 -137l-49 78l264 182h111zM1645 111l-17 -111h-600l16 117l398 336q41 35 65.5 58t50 62t31.5 76q6 50 -38 86.5t-101 36.5q-66 0 -120.5 -33t-76.5 -82l-112 19q35 98 121.5 152.5t197.5 54.5
q121 0 193.5 -59t58.5 -167q-6 -47 -26.5 -89.5t-59.5 -84t-66 -66t-81 -67.5l-299 -239h465z" />
    <glyph glyph-name="threequarters" unicode="&#xbe;" horiz-adv-x="1708" 
d="M1618 870l-80 -567h123l-16 -110h-123l-27 -193h-123l27 193h-393l18 126l444 551h150zM494 -66l-99 66l1137 1516l96 -64zM1415 303l62 445h-4l-340 -445h282zM424 989l14 111h49q90 0 153.5 37t72.5 108q8 50 -29 84.5t-100 34.5q-60 0 -102.5 -20t-88.5 -74l-86 67
q61 74 130.5 106t158.5 32q115 0 185.5 -61t56.5 -165q-10 -70 -65.5 -124.5t-131.5 -77.5v-5q89 -15 132 -73t32 -140q-17 -116 -112.5 -182.5t-223.5 -66.5q-225 0 -272 176l112 61q16 -64 58 -95.5t125 -31.5q61 0 122 44.5t68 96.5q3 27 -3 52t-25 50t-63 40.5
t-108 15.5h-59z" />
    <glyph glyph-name="questiondown" unicode="&#xbf;" horiz-adv-x="987" 
d="M489 485l15 105h147l-22 -170q-7 -45 -32 -87.5t-59.5 -76.5t-74.5 -67t-79.5 -67t-73.5 -69t-58 -80t-31 -94q-15 -104 43 -169.5t164 -65.5q102 0 180 61t111 162l151 -19q-45 -158 -171.5 -249t-288.5 -91q-170 0 -266 95.5t-72 263.5q10 71 36.5 128t61 95t74.5 71.5
t79.5 65t73.5 65.5t59 83.5t33 109.5zM498 885q6 44 41.5 77t83.5 33t75 -33t21 -77t-42.5 -77.5t-84.5 -33.5t-74 33t-20 78z" />
    <glyph glyph-name="Agrave" unicode="&#xc0;" horiz-adv-x="1404" 
d="M385 381l-213 -381h-172l836 1450h143l426 -1450h-172l-107 381h-741zM883 1278l-424 -762h628zM920 1513l-230 295h187l163 -295h-120z" />
    <glyph glyph-name="Aacute" unicode="&#xc1;" horiz-adv-x="1404" 
d="M385 381l-213 -381h-172l836 1450h143l426 -1450h-172l-107 381h-741zM883 1278l-424 -762h628zM1223 1808l-312 -295h-120l245 295h187z" />
    <glyph glyph-name="Acircumflex" unicode="&#xc2;" horiz-adv-x="1404" 
d="M385 381l-213 -381h-172l836 1450h143l426 -1450h-172l-107 381h-741zM883 1278l-424 -762h628zM1038 1808l183 -295h-136l-139 222l-201 -222h-135l264 295h164z" />
    <glyph glyph-name="Atilde" unicode="&#xc3;" horiz-adv-x="1404" 
d="M385 381l-213 -381h-172l836 1450h143l426 -1450h-172l-107 381h-741zM883 1278l-424 -762h628zM676 1538h-88q66 213 217 213q58 0 143 -47q92 -47 131 -47q75 0 115 102h88q-70 -213 -219 -213q-47 0 -143 47q-81 47 -129 47q-79 0 -115 -102z" />
    <glyph glyph-name="Adieresis" unicode="&#xc4;" horiz-adv-x="1404" 
d="M385 381l-213 -381h-172l836 1450h143l426 -1450h-172l-107 381h-741zM883 1278l-424 -762h628zM639 1683q5 41 39.5 73t79.5 32q44 0 69.5 -31.5t20.5 -73.5q-6 -41 -41 -72.5t-80 -31.5q-44 0 -69 31.5t-19 72.5zM1032 1683q5 41 39.5 73t79.5 32q44 0 69.5 -31.5
t20.5 -73.5q-6 -41 -41 -72.5t-80 -31.5q-44 0 -69 31.5t-19 72.5z" />
    <glyph glyph-name="Aring" unicode="&#xc5;" horiz-adv-x="1404" 
d="M385 381l-213 -381h-172l836 1450h143l426 -1450h-172l-107 381h-741zM883 1278l-424 -762h628zM1137 1690q-12 -82 -78 -138.5t-146 -56.5q-81 0 -131.5 56.5t-38.5 138.5t77.5 138t146.5 56t131.5 -56t38.5 -138zM1063 1690q7 51 -24.5 85.5t-82.5 34.5t-91.5 -34.5
t-47.5 -85.5t24.5 -86t82.5 -35t91.5 35t47.5 86z" />
    <glyph glyph-name="AE" unicode="&#xc6;" horiz-adv-x="1933" 
d="M1378 1315l-69 -494h565l-19 -135h-565l-78 -551h627l-18 -135h-774l57 406h-610l-320 -406h-174l1149 1450h852l-21 -135h-602zM598 541h524l109 774h-23z" />
    <glyph glyph-name="Ccedilla" unicode="&#xc7;" horiz-adv-x="1441" 
d="M1315 315l108 -86q-93 -117 -247 -191.5t-328 -74.5q-29 0 -41 4l-80 -90l2 -2q44 14 76 14q65 0 106 -41.5t31 -111.5q-13 -88 -89.5 -134t-170.5 -46q-108 0 -193 49l43 73q62 -36 146 -36q51 0 92.5 22.5t48.5 69.5q1 12 -1.5 24t-11 26t-28.5 23t-49 9q-40 0 -96 -23
l-33 35l127 145q-274 42 -421 249.5t-105 502.5q23 162 100 304t191.5 242.5t262.5 158t308 57.5q144 0 269.5 -57t199.5 -173l-141 -96q-36 74 -136 132.5t-211 58.5q-136 0 -257 -51t-208 -137.5t-144 -199.5t-75 -239t7.5 -239t88.5 -199.5t169.5 -137.5t242.5 -51
q275 0 447 217z" />
    <glyph glyph-name="Egrave" unicode="&#xc8;" horiz-adv-x="1214" 
d="M440 686l-78 -551h777l-19 -135h-923l204 1450h899l-20 -135h-752l-69 -494h702l-18 -135h-703zM825 1513l-229 295h186l164 -295h-121z" />
    <glyph glyph-name="Eacute" unicode="&#xc9;" horiz-adv-x="1214" 
d="M440 686l-78 -551h777l-19 -135h-923l204 1450h899l-20 -135h-752l-69 -494h702l-18 -135h-703zM1128 1808l-311 -295h-121l246 295h186z" />
    <glyph glyph-name="Ecircumflex" unicode="&#xca;" horiz-adv-x="1214" 
d="M440 686l-78 -551h777l-19 -135h-923l204 1450h899l-20 -135h-752l-69 -494h702l-18 -135h-703zM944 1808l182 -295h-135l-139 222l-201 -222h-135l264 295h164z" />
    <glyph glyph-name="Edieresis" unicode="&#xcb;" horiz-adv-x="1214" 
d="M440 686l-78 -551h777l-19 -135h-923l204 1450h899l-20 -135h-752l-69 -494h702l-18 -135h-703zM545 1683q5 41 39.5 73t79.5 32q44 0 69.5 -31.5t20.5 -73.5q-6 -41 -41 -72.5t-80 -31.5q-44 0 -69 31.5t-19 72.5zM938 1683q5 41 39.5 73t79.5 32q44 0 69.5 -31.5
t20.5 -73.5q-6 -41 -41 -72.5t-80 -31.5q-44 0 -69 31.5t-19 72.5z" />
    <glyph glyph-name="Igrave" unicode="&#xcc;" horiz-adv-x="540" 
d="M549 1450l-205 -1450h-147l204 1450h148zM487 1513l-229 295h186l164 -295h-121z" />
    <glyph glyph-name="Iacute" unicode="&#xcd;" horiz-adv-x="540" 
d="M549 1450l-205 -1450h-147l204 1450h148zM791 1808l-312 -295h-121l246 295h187z" />
    <glyph glyph-name="Icircumflex" unicode="&#xce;" horiz-adv-x="540" 
d="M549 1450l-205 -1450h-147l204 1450h148zM606 1808l182 -295h-135l-139 222l-201 -222h-135l264 295h164z" />
    <glyph glyph-name="Idieresis" unicode="&#xcf;" horiz-adv-x="540" 
d="M549 1450l-205 -1450h-147l204 1450h148zM207 1683q5 41 39.5 73t79.5 32q44 0 69.5 -31.5t20.5 -73.5q-6 -41 -41 -72.5t-80 -31.5q-44 0 -69 31.5t-19 72.5zM600 1683q5 41 39.5 73t79.5 32q44 0 69.5 -31.5t20.5 -73.5q-6 -41 -41 -72.5t-80 -31.5q-44 0 -69 31.5
t-19 72.5z" />
    <glyph glyph-name="Eth" unicode="&#xd0;" horiz-adv-x="1517" 
d="M176 0l100 711h-149l14 110h150l90 629h481q92 0 179.5 -20.5t167.5 -60t144.5 -101.5t108 -140t60.5 -182t0 -221q-20 -140 -81.5 -260t-148.5 -204t-194 -144t-219 -88.5t-222 -28.5h-481zM424 711l-82 -576h287q129 0 241.5 32.5t195.5 89t146 132t100 160.5t50 176
t0 176t-55 160.5t-109 132t-170.5 89t-232.5 32.5h-287l-70 -494h529l-15 -110h-528z" />
    <glyph glyph-name="Ntilde" unicode="&#xd1;" horiz-adv-x="1593" 
d="M586 1450l690 -1229h4l174 1229h148l-205 -1450h-185l-690 1241h-4l-174 -1241h-147l204 1450h185zM770 1538h-88q66 213 217 213q58 0 143 -47q92 -47 132 -47q74 0 114 102h88q-70 -213 -219 -213q-47 0 -143 47q-81 47 -129 47q-79 0 -115 -102z" />
    <glyph glyph-name="Ograve" unicode="&#xd2;" horiz-adv-x="1708" 
d="M1712 725q-23 -162 -100.5 -304t-192 -242.5t-263 -158t-308.5 -57.5q-213 0 -371.5 98t-232 272.5t-43.5 391.5q23 162 100 304t191.5 242.5t262.5 158t308 57.5q213 0 372 -98t233 -272.5t44 -391.5zM1552 725q18 126 -7.5 239t-88.5 199.5t-169.5 137.5t-242.5 51
t-257 -51t-208 -137.5t-144 -199.5t-75 -239t7.5 -239t88.5 -199.5t169.5 -137.5t242.5 -51t257 51t208 137.5t144 199.5t75 239zM1071 1513l-229 295h186l164 -295h-121z" />
    <glyph glyph-name="Oacute" unicode="&#xd3;" horiz-adv-x="1708" 
d="M1712 725q-23 -162 -100.5 -304t-192 -242.5t-263 -158t-308.5 -57.5q-213 0 -371.5 98t-232 272.5t-43.5 391.5q23 162 100 304t191.5 242.5t262.5 158t308 57.5q213 0 372 -98t233 -272.5t44 -391.5zM1552 725q18 126 -7.5 239t-88.5 199.5t-169.5 137.5t-242.5 51
t-257 -51t-208 -137.5t-144 -199.5t-75 -239t7.5 -239t88.5 -199.5t169.5 -137.5t242.5 -51t257 51t208 137.5t144 199.5t75 239zM1374 1808l-311 -295h-121l246 295h186z" />
    <glyph glyph-name="Ocircumflex" unicode="&#xd4;" horiz-adv-x="1708" 
d="M1712 725q-23 -162 -100.5 -304t-192 -242.5t-263 -158t-308.5 -57.5q-213 0 -371.5 98t-232 272.5t-43.5 391.5q23 162 100 304t191.5 242.5t262.5 158t308 57.5q213 0 372 -98t233 -272.5t44 -391.5zM1552 725q18 126 -7.5 239t-88.5 199.5t-169.5 137.5t-242.5 51
t-257 -51t-208 -137.5t-144 -199.5t-75 -239t7.5 -239t88.5 -199.5t169.5 -137.5t242.5 -51t257 51t208 137.5t144 199.5t75 239zM1190 1808l182 -295h-135l-139 222l-201 -222h-135l264 295h164z" />
    <glyph glyph-name="Otilde" unicode="&#xd5;" horiz-adv-x="1708" 
d="M1712 725q-23 -162 -100.5 -304t-192 -242.5t-263 -158t-308.5 -57.5q-213 0 -371.5 98t-232 272.5t-43.5 391.5q23 162 100 304t191.5 242.5t262.5 158t308 57.5q213 0 372 -98t233 -272.5t44 -391.5zM1552 725q18 126 -7.5 239t-88.5 199.5t-169.5 137.5t-242.5 51
t-257 -51t-208 -137.5t-144 -199.5t-75 -239t7.5 -239t88.5 -199.5t169.5 -137.5t242.5 -51t257 51t208 137.5t144 199.5t75 239zM827 1538h-88q66 213 217 213q59 0 144 -47q92 -47 131 -47q75 0 115 102h88q-70 -213 -220 -213q-47 0 -143 47q-81 47 -129 47
q-79 0 -115 -102z" />
    <glyph glyph-name="Odieresis" unicode="&#xd6;" horiz-adv-x="1708" 
d="M1712 725q-23 -162 -100.5 -304t-192 -242.5t-263 -158t-308.5 -57.5q-213 0 -371.5 98t-232 272.5t-43.5 391.5q23 162 100 304t191.5 242.5t262.5 158t308 57.5q213 0 372 -98t233 -272.5t44 -391.5zM1552 725q18 126 -7.5 239t-88.5 199.5t-169.5 137.5t-242.5 51
t-257 -51t-208 -137.5t-144 -199.5t-75 -239t7.5 -239t88.5 -199.5t169.5 -137.5t242.5 -51t257 51t208 137.5t144 199.5t75 239zM791 1683q5 41 39 73t79 32q44 0 69.5 -31.5t20.5 -73.5q-6 -41 -41 -72.5t-79 -31.5t-69 31.5t-19 72.5zM1184 1683q5 41 39.5 73t79.5 32
q44 0 69.5 -31.5t20.5 -73.5q-6 -41 -41 -72.5t-80 -31.5q-44 0 -69 31.5t-19 72.5z" />
    <glyph glyph-name="multiply" unicode="&#xd7;" horiz-adv-x="1363" 
d="M502 1034l280 -325l369 325l76 -86l-371 -327l279 -326l-101 -88l-276 325l-373 -325l-74 88l373 326l-281 327z" />
    <glyph glyph-name="Oslash" unicode="&#xd8;" horiz-adv-x="1708" 
d="M1767 1417l-178 -168q80 -101 112.5 -235t10.5 -289q-23 -162 -100.5 -304t-192 -242.5t-263 -158t-308.5 -57.5q-279 0 -459 166l-180 -166l-66 70l181 168q-81 102 -113.5 236t-9.5 288q23 162 100 304t191.5 242.5t262.5 158t308 57.5q278 0 461 -166l178 166z
M1470 1139l-968 -903q138 -138 366 -138q136 0 257 51t208 137.5t144 199.5t75 239q31 241 -82 414zM440 311l969 903q-138 138 -365 138q-136 0 -257 -51t-208 -137.5t-144 -199.5t-75 -239q-35 -241 80 -414z" />
    <glyph glyph-name="Ugrave" unicode="&#xd9;" horiz-adv-x="1404" 
d="M1438 1450l-129 -909q-9 -65 -27 -127.5t-49.5 -129.5t-80 -123t-111.5 -101.5t-151.5 -71t-193.5 -25.5q-90 0 -163 19.5t-122 52.5t-84 79.5t-53.5 97t-27 109.5t-7.5 112t9 108l129 909h147l-127 -893q-6 -63 -7.5 -114.5t8.5 -93.5t22 -75.5t33 -59t41 -44t46 -31.5
t48 -21t47.5 -12.5t44 -6t37.5 -1.5q42 0 84.5 7t103.5 35t109 74.5t90.5 135t58.5 207.5l127 893h148zM920 1513l-230 295h187l163 -295h-120z" />
    <glyph glyph-name="Uacute" unicode="&#xda;" horiz-adv-x="1404" 
d="M1438 1450l-129 -909q-9 -65 -27 -127.5t-49.5 -129.5t-80 -123t-111.5 -101.5t-151.5 -71t-193.5 -25.5q-90 0 -163 19.5t-122 52.5t-84 79.5t-53.5 97t-27 109.5t-7.5 112t9 108l129 909h147l-127 -893q-6 -63 -7.5 -114.5t8.5 -93.5t22 -75.5t33 -59t41 -44t46 -31.5
t48 -21t47.5 -12.5t44 -6t37.5 -1.5q42 0 84.5 7t103.5 35t109 74.5t90.5 135t58.5 207.5l127 893h148zM1223 1808l-312 -295h-120l245 295h187z" />
    <glyph glyph-name="Ucircumflex" unicode="&#xdb;" horiz-adv-x="1404" 
d="M1438 1450l-129 -909q-9 -65 -27 -127.5t-49.5 -129.5t-80 -123t-111.5 -101.5t-151.5 -71t-193.5 -25.5q-90 0 -163 19.5t-122 52.5t-84 79.5t-53.5 97t-27 109.5t-7.5 112t9 108l129 909h147l-127 -893q-6 -63 -7.5 -114.5t8.5 -93.5t22 -75.5t33 -59t41 -44t46 -31.5
t48 -21t47.5 -12.5t44 -6t37.5 -1.5q42 0 84.5 7t103.5 35t109 74.5t90.5 135t58.5 207.5l127 893h148zM1038 1808l183 -295h-136l-139 222l-201 -222h-135l264 295h164z" />
    <glyph glyph-name="Udieresis" unicode="&#xdc;" horiz-adv-x="1404" 
d="M1438 1450l-129 -909q-9 -65 -27 -127.5t-49.5 -129.5t-80 -123t-111.5 -101.5t-151.5 -71t-193.5 -25.5q-90 0 -163 19.5t-122 52.5t-84 79.5t-53.5 97t-27 109.5t-7.5 112t9 108l129 909h147l-127 -893q-6 -63 -7.5 -114.5t8.5 -93.5t22 -75.5t33 -59t41 -44t46 -31.5
t48 -21t47.5 -12.5t44 -6t37.5 -1.5q42 0 84.5 7t103.5 35t109 74.5t90.5 135t58.5 207.5l127 893h148zM639 1683q5 41 39.5 73t79.5 32q44 0 69.5 -31.5t20.5 -73.5q-6 -41 -41 -72.5t-80 -31.5q-44 0 -69 31.5t-19 72.5zM1032 1683q5 41 39.5 73t79.5 32q44 0 69.5 -31.5
t20.5 -73.5q-6 -41 -41 -72.5t-80 -31.5q-44 0 -69 31.5t-19 72.5z" />
    <glyph glyph-name="Yacute" unicode="&#xdd;" horiz-adv-x="1175" 
d="M750 625l-88 -625h-148l88 625l-426 825h184l336 -684l529 684h184zM1108 1808l-311 -295h-121l246 295h186z" />
    <glyph glyph-name="Thorn" unicode="&#xde;" horiz-adv-x="1175" 
d="M197 0l204 1450h148l-45 -320h327q92 0 165 -24.5t124 -71.5t72.5 -121.5t7.5 -169.5q-27 -190 -158 -289.5t-321 -99.5h-328l-49 -354h-147zM483 995l-69 -506h237q46 0 81.5 2.5t80.5 10.5t79 25.5t66.5 44.5t53 70.5t28.5 100.5q8 56 -0.5 99.5t-33.5 70t-54 44
t-72 25.5t-78 10.5t-81 2.5h-238z" />
    <glyph glyph-name="germandbls" unicode="&#xdf;" horiz-adv-x="1214" 
d="M465 1126l-158 -1126h-135l156 1114q14 96 47 174.5t90 144.5t149 103t211 37q169 0 266.5 -98t73.5 -265q-34 -241 -282 -325l-2 -4q87 -7 151 -45t96 -95.5t44.5 -131t-1.5 -152.5q-31 -218 -183.5 -350t-369.5 -132q-61 0 -116 17l16 117q45 -11 98 -11
q164 0 274.5 96t133.5 265q27 182 -68 270t-292 88l18 123q87 0 155 24t117 81.5t62 146.5q17 119 -45 188.5t-170 69.5q-78 0 -141 -30t-102 -79t-62 -103.5t-31 -111.5z" />
    <glyph glyph-name="agrave" unicode="&#xe0;" horiz-adv-x="1062" 
d="M776 588h68l4 24q17 125 -35 186.5t-176 61.5q-170 0 -309 -112l-68 96q154 139 424 139q72 0 131.5 -21t102.5 -61.5t62 -106.5t7 -151l-59 -428q-15 -111 -15 -215h-131q-3 68 11 156h-5q-71 -94 -159 -137.5t-205 -43.5q-88 0 -157 30.5t-107 96t-25 154.5
q9 64 38 116t67.5 86t93.5 59t106.5 38.5t116.5 21t112.5 9.5t106.5 2zM829 477h-69q-447 0 -475 -203q-9 -60 20 -101.5t75.5 -58t104.5 -16.5q141 0 227.5 87.5t106.5 222.5zM698 1155l-227 295h186l162 -295h-121z" />
    <glyph glyph-name="aacute" unicode="&#xe1;" horiz-adv-x="1062" 
d="M776 588h68l4 24q17 125 -35 186.5t-176 61.5q-170 0 -309 -112l-68 96q154 139 424 139q72 0 131.5 -21t102.5 -61.5t62 -106.5t7 -151l-59 -428q-15 -111 -15 -215h-131q-3 68 11 156h-5q-71 -94 -159 -137.5t-205 -43.5q-88 0 -157 30.5t-107 96t-25 154.5
q9 64 38 116t67.5 86t93.5 59t106.5 38.5t116.5 21t112.5 9.5t106.5 2zM829 477h-69q-447 0 -475 -203q-9 -60 20 -101.5t75.5 -58t104.5 -16.5q141 0 227.5 87.5t106.5 222.5zM1004 1450l-314 -295h-121l248 295h187z" />
    <glyph glyph-name="acircumflex" unicode="&#xe2;" horiz-adv-x="1062" 
d="M776 588h68l4 24q17 125 -35 186.5t-176 61.5q-170 0 -309 -112l-68 96q154 139 424 139q72 0 131.5 -21t102.5 -61.5t62 -106.5t7 -151l-59 -428q-15 -111 -15 -215h-131q-3 68 11 156h-5q-71 -94 -159 -137.5t-205 -43.5q-88 0 -157 30.5t-107 96t-25 154.5
q9 64 38 116t67.5 86t93.5 59t106.5 38.5t116.5 21t112.5 9.5t106.5 2zM829 477h-69q-447 0 -475 -203q-9 -60 20 -101.5t75.5 -58t104.5 -16.5q141 0 227.5 87.5t106.5 222.5zM819 1450l180 -295h-135l-139 221l-201 -221h-135l266 295h164z" />
    <glyph glyph-name="atilde" unicode="&#xe3;" horiz-adv-x="1062" 
d="M776 588h68l4 24q17 125 -35 186.5t-176 61.5q-170 0 -309 -112l-68 96q154 139 424 139q72 0 131.5 -21t102.5 -61.5t62 -106.5t7 -151l-59 -428q-15 -111 -15 -215h-131q-3 68 11 156h-5q-71 -94 -159 -137.5t-205 -43.5q-88 0 -157 30.5t-107 96t-25 154.5
q9 64 38 116t67.5 86t93.5 59t106.5 38.5t116.5 21t112.5 9.5t106.5 2zM829 477h-69q-447 0 -475 -203q-9 -60 20 -101.5t75.5 -58t104.5 -16.5q141 0 227.5 87.5t106.5 222.5zM455 1180h-88q66 213 219 213q56 0 141 -47q6 -3 22.5 -11t23.5 -11.5t21 -9.5t23 -9t20 -5
t21 -2q42 0 70.5 29.5t44.5 73.5h88q-66 -213 -217 -213q-52 0 -144 47q-85 47 -131 47q-78 0 -114 -102z" />
    <glyph glyph-name="adieresis" unicode="&#xe4;" horiz-adv-x="1062" 
d="M776 588h68l4 24q17 125 -35 186.5t-176 61.5q-170 0 -309 -112l-68 96q154 139 424 139q72 0 131.5 -21t102.5 -61.5t62 -106.5t7 -151l-59 -428q-15 -111 -15 -215h-131q-3 68 11 156h-5q-71 -94 -159 -137.5t-205 -43.5q-88 0 -157 30.5t-107 96t-25 154.5
q9 64 38 116t67.5 86t93.5 59t106.5 38.5t116.5 21t112.5 9.5t106.5 2zM829 477h-69q-447 0 -475 -203q-9 -60 20 -101.5t75.5 -58t104.5 -16.5q141 0 227.5 87.5t106.5 222.5zM418 1325q6 41 40.5 73t78.5 32t70 -32t20 -73t-40.5 -72.5t-78.5 -31.5q-45 0 -70.5 31.5
t-19.5 72.5zM811 1325q6 41 40.5 73t78.5 32t70 -32t20 -73t-40.5 -72.5t-78.5 -31.5q-45 0 -70.5 31.5t-19.5 72.5z" />
    <glyph glyph-name="aring" unicode="&#xe5;" horiz-adv-x="1062" 
d="M776 588h68l4 24q17 125 -35 186.5t-176 61.5q-170 0 -309 -112l-68 96q154 139 424 139q72 0 131.5 -21t102.5 -61.5t62 -106.5t7 -151l-59 -428q-15 -111 -15 -215h-131q-3 68 11 156h-5q-71 -94 -159 -137.5t-205 -43.5q-88 0 -157 30.5t-107 96t-25 154.5
q9 64 38 116t67.5 86t93.5 59t106.5 38.5t116.5 21t112.5 9.5t106.5 2zM829 477h-69q-447 0 -475 -203q-9 -60 20 -101.5t75.5 -58t104.5 -16.5q141 0 227.5 87.5t106.5 222.5zM915 1331q-10 -82 -76 -138t-147 -56q-80 0 -130 56t-40 138q12 82 78.5 138.5t147.5 56.5
q80 0 129.5 -56.5t37.5 -138.5zM842 1331q7 51 -23.5 86t-81.5 35t-92.5 -35t-48.5 -86q-6 -51 24.5 -86t81.5 -35t92.5 35t47.5 86z" />
    <glyph glyph-name="ae" unicode="&#xe6;" horiz-adv-x="1744" 
d="M1708 442h-719l-2 -18q-13 -88 10 -161.5t82 -119t144 -45.5q112 0 184 41t135 115l96 -84q-90 -97 -202 -146t-228 -49q-114 0 -202.5 57t-122.5 167q-88 -120 -197 -172t-262 -52q-88 0 -157 30.5t-107 96t-25 154.5q8 62 34 110.5t66 80.5t86 53.5t103 32.5
t108.5 15.5t110.5 4.5h227l9 59q7 58 -6 103.5t-36.5 72t-56 43.5t-60 23t-52.5 6q-172 0 -308 -115l-69 99q168 139 399 139q108 0 188.5 -52t104.5 -132q58 83 160 133.5t207 50.5q138 -1 228.5 -65t124.5 -170.5t15 -243.5zM854 442h-281q-64 0 -122.5 -14t-108 -54
t-57.5 -100q-9 -60 20 -101.5t75.5 -58t104.5 -16.5q145 0 246 91t121 235zM1006 553h583q19 135 -50 221t-202 86q-122 0 -217 -88t-114 -219z" />
    <glyph glyph-name="ccedilla" unicode="&#xe7;" horiz-adv-x="987" 
d="M1071 817l-123 -84q-28 55 -86.5 91t-134.5 36q-164 3 -277 -105t-137 -276t59.5 -276t248.5 -105q76 0 145 36t111 91l100 -84q-81 -81 -178 -122.5t-197 -43.5q-12 0 -14 2l-88 -100l2 -2q44 14 76 14q65 0 106 -41.5t31 -111.5q-13 -88 -89.5 -134t-170.5 -46
q-108 0 -193 49l43 73q62 -36 146 -36q51 0 92.5 22.5t48.5 69.5q1 12 -1.5 24t-11 26t-28.5 23t-49 9q-40 0 -96 -23l-33 35l137 156q-188 26 -280 162.5t-64 332.5q31 221 189.5 364t387.5 140q100 -2 185.5 -43.5t142.5 -122.5z" />
    <glyph glyph-name="egrave" unicode="&#xe8;" 
d="M1102 442h-799q-8 -146 78 -245t227 -99q101 0 188.5 47.5t141.5 118.5l92 -86q-189 -203 -440 -203q-141 0 -245 65.5t-151.5 180.5t-27.5 258q31 216 189.5 360t363.5 144q141 -1 238 -66.5t135.5 -173t19.5 -239.5zM324 553h647q19 138 -53 222.5t-216 84.5
q-131 0 -246 -94t-132 -213zM735 1155l-227 295h186l162 -295h-121z" />
    <glyph glyph-name="eacute" unicode="&#xe9;" 
d="M1102 442h-799q-8 -146 78 -245t227 -99q101 0 188.5 47.5t141.5 118.5l92 -86q-189 -203 -440 -203q-141 0 -245 65.5t-151.5 180.5t-27.5 258q31 216 189.5 360t363.5 144q141 -1 238 -66.5t135.5 -173t19.5 -239.5zM324 553h647q19 138 -53 222.5t-216 84.5
q-131 0 -246 -94t-132 -213zM1040 1450l-313 -295h-121l248 295h186z" />
    <glyph glyph-name="ecircumflex" unicode="&#xea;" 
d="M1102 442h-799q-8 -146 78 -245t227 -99q101 0 188.5 47.5t141.5 118.5l92 -86q-189 -203 -440 -203q-141 0 -245 65.5t-151.5 180.5t-27.5 258q31 216 189.5 360t363.5 144q141 -1 238 -66.5t135.5 -173t19.5 -239.5zM324 553h647q19 138 -53 222.5t-216 84.5
q-131 0 -246 -94t-132 -213zM856 1450l180 -295h-135l-139 221l-201 -221h-135l266 295h164z" />
    <glyph glyph-name="edieresis" unicode="&#xeb;" 
d="M1102 442h-799q-8 -146 78 -245t227 -99q101 0 188.5 47.5t141.5 118.5l92 -86q-189 -203 -440 -203q-141 0 -245 65.5t-151.5 180.5t-27.5 258q31 216 189.5 360t363.5 144q141 -1 238 -66.5t135.5 -173t19.5 -239.5zM324 553h647q19 138 -53 222.5t-216 84.5
q-131 0 -246 -94t-132 -213zM455 1325q6 41 40 73t78 32q45 0 71 -32t20 -73t-40.5 -72.5t-78.5 -31.5q-45 0 -70.5 31.5t-19.5 72.5zM848 1325q6 41 40.5 73t78.5 32t70 -32t20 -73t-40.5 -72.5t-78.5 -31.5q-45 0 -70.5 31.5t-19.5 72.5z" />
    <glyph glyph-name="igrave" unicode="&#xec;" horiz-adv-x="491" 
d="M449 958l-136 -958h-135l135 958h136zM412 1155l-228 295h187l161 -295h-120z" />
    <glyph glyph-name="iacute" unicode="&#xed;" horiz-adv-x="491" 
d="M449 958l-136 -958h-135l135 958h136zM717 1450l-314 -295h-120l247 295h187z" />
    <glyph glyph-name="icircumflex" unicode="&#xee;" horiz-adv-x="491" 
d="M449 958l-136 -958h-135l135 958h136zM532 1450l181 -295h-135l-140 221l-200 -221h-136l267 295h163z" />
    <glyph glyph-name="idieresis" unicode="&#xef;" horiz-adv-x="491" 
d="M449 958l-136 -958h-135l135 958h136zM131 1325q6 41 40.5 73t78.5 32t70 -32t20 -73t-40.5 -72.5t-78.5 -31.5q-45 0 -70.5 31.5t-19.5 72.5zM524 1325q6 41 40.5 73t78.5 32t70 -32t20 -73t-40.5 -72.5t-78.5 -31.5q-45 0 -70.5 31.5t-19.5 72.5z" />
    <glyph glyph-name="eth" unicode="&#xf0;" horiz-adv-x="1214" 
d="M313 479q-24 -164 60.5 -272.5t247.5 -108.5q164 0 277.5 108t137.5 273t-60.5 273t-248.5 108q-163 0 -276.5 -108t-137.5 -273zM1137 1462l-226 -110q170 -198 242 -398.5t37 -433.5q-12 -79 -37 -152t-72.5 -146t-111 -126.5t-158.5 -87t-209 -33.5q-146 0 -253 65.5
t-155 180.5t-28 258q31 218 193.5 361t383.5 143q88 0 157 -28.5t134 -90.5l6 4q-57 144 -118 236.5t-150 181.5l-242 -117l-63 74l238 115q-82 91 -173 162l134 75q113 -102 176 -170l223 109z" />
    <glyph glyph-name="ntilde" unicode="&#xf1;" 
d="M272 958h140q-2 -60 -17 -153h4q55 78 153 128t193 50q180 0 257.5 -97t52.5 -278l-86 -608h-135l73 530q24 168 -22 249t-191 81q-10 0 -25.5 -2t-46 -10t-60 -22t-64 -42.5t-62.5 -65.5t-51 -95.5t-33 -130.5l-69 -492h-136l105 748q4 28 20 210zM492 1180h-89
q66 213 220 213q56 0 141 -47q6 -3 22.5 -11t23.5 -11.5t21 -9.5t23 -9t20 -5t21 -2q42 0 70.5 29.5t44.5 73.5h88q-66 -213 -217 -213q-52 0 -144 47q-85 47 -131 47q-78 0 -114 -102z" />
    <glyph glyph-name="ograve" unicode="&#xf2;" horiz-adv-x="1214" 
d="M1184 479q-31 -218 -195 -361t-387 -143q-146 0 -253 65.5t-155 180.5t-28 258q31 218 193.5 361t383.5 143q223 0 347.5 -143t93.5 -361zM1036 479q24 165 -60.5 273t-248.5 108q-163 0 -276.5 -108t-137.5 -273q-24 -164 60.5 -272.5t247.5 -108.5q164 0 277.5 108
t137.5 273zM774 1155l-227 295h186l162 -295h-121z" />
    <glyph glyph-name="oacute" unicode="&#xf3;" horiz-adv-x="1214" 
d="M1184 479q-31 -218 -195 -361t-387 -143q-146 0 -253 65.5t-155 180.5t-28 258q31 218 193.5 361t383.5 143q223 0 347.5 -143t93.5 -361zM1036 479q24 165 -60.5 273t-248.5 108q-163 0 -276.5 -108t-137.5 -273q-24 -164 60.5 -272.5t247.5 -108.5q164 0 277.5 108
t137.5 273zM1079 1450l-313 -295h-121l248 295h186z" />
    <glyph glyph-name="ocircumflex" unicode="&#xf4;" horiz-adv-x="1214" 
d="M1184 479q-31 -218 -195 -361t-387 -143q-146 0 -253 65.5t-155 180.5t-28 258q31 218 193.5 361t383.5 143q223 0 347.5 -143t93.5 -361zM1036 479q24 165 -60.5 273t-248.5 108q-163 0 -276.5 -108t-137.5 -273q-24 -164 60.5 -272.5t247.5 -108.5q164 0 277.5 108
t137.5 273zM895 1450l180 -295h-135l-139 221l-201 -221h-135l266 295h164z" />
    <glyph glyph-name="otilde" unicode="&#xf5;" horiz-adv-x="1214" 
d="M1184 479q-31 -218 -195 -361t-387 -143q-146 0 -253 65.5t-155 180.5t-28 258q31 218 193.5 361t383.5 143q223 0 347.5 -143t93.5 -361zM1036 479q24 165 -60.5 273t-248.5 108q-163 0 -276.5 -108t-137.5 -273q-24 -164 60.5 -272.5t247.5 -108.5q164 0 277.5 108
t137.5 273zM530 1180h-88q66 213 220 213q56 0 141 -47q6 -3 22.5 -11t23.5 -11.5t21 -9.5t23 -9t20 -5t21 -2q42 0 70.5 29.5t44.5 73.5h88q-66 -213 -217 -213q-52 0 -144 47q-85 47 -131 47q-79 0 -115 -102z" />
    <glyph glyph-name="odieresis" unicode="&#xf6;" horiz-adv-x="1214" 
d="M1184 479q-31 -218 -195 -361t-387 -143q-146 0 -253 65.5t-155 180.5t-28 258q31 218 193.5 361t383.5 143q223 0 347.5 -143t93.5 -361zM1036 479q24 165 -60.5 273t-248.5 108q-163 0 -276.5 -108t-137.5 -273q-24 -164 60.5 -272.5t247.5 -108.5q164 0 277.5 108
t137.5 273zM494 1325q6 41 40 73t78 32t70 -32t20 -73t-40 -72.5t-78 -31.5q-45 0 -70.5 31.5t-19.5 72.5zM887 1325q6 41 40.5 73t78.5 32t70 -32t20 -73t-40.5 -72.5t-78.5 -31.5q-45 0 -70.5 31.5t-19.5 72.5z" />
    <glyph glyph-name="divide" unicode="&#xf7;" horiz-adv-x="1363" 
d="M1300 682l-18 -123h-1044l18 123h1044zM926 952q-6 -44 -41.5 -77t-83.5 -33t-75 33t-21 77t42 77.5t84 33.5t74.5 -33.5t20.5 -77.5zM834 289q-6 -44 -42.5 -77.5t-84.5 -33.5t-74.5 33.5t-20.5 77.5t41.5 77t83.5 33t75.5 -33t21.5 -77z" />
    <glyph glyph-name="oslash" unicode="&#xf8;" horiz-adv-x="1214" 
d="M999 713l-598 -537q84 -78 220 -78q164 0 277.5 108t137.5 273q18 131 -37 234zM350 246l598 534q-83 80 -221 80q-163 0 -276.5 -108t-137.5 -273q-19 -141 37 -233zM1266 952l-154 -139q99 -136 72 -334q-31 -218 -195 -361t-387 -143q-188 0 -305 107l-158 -139
l-57 63l156 139q-99 138 -72 334q31 218 193.5 361t383.5 143q190 0 312 -106l155 139z" />
    <glyph glyph-name="ugrave" unicode="&#xf9;" 
d="M979 0h-139q3 69 16 154h-4q-57 -78 -155 -128.5t-193 -50.5q-180 0 -256 96.5t-51 278.5l86 608h135l-76 -530q-23 -168 23.5 -249t191.5 -81q10 0 25.5 2t46 10.5t60 22.5t64 42t62.5 65.5t51 96t33 130.5l70 491h135l-107 -747q-3 -23 -6 -58t-6.5 -82t-5.5 -71z
M735 1155l-227 295h186l162 -295h-121z" />
    <glyph glyph-name="uacute" unicode="&#xfa;" 
d="M979 0h-139q3 69 16 154h-4q-57 -78 -155 -128.5t-193 -50.5q-180 0 -256 96.5t-51 278.5l86 608h135l-76 -530q-23 -168 23.5 -249t191.5 -81q10 0 25.5 2t46 10.5t60 22.5t64 42t62.5 65.5t51 96t33 130.5l70 491h135l-107 -747q-3 -23 -6 -58t-6.5 -82t-5.5 -71z
M1040 1450l-313 -295h-121l248 295h186z" />
    <glyph glyph-name="ucircumflex" unicode="&#xfb;" 
d="M979 0h-139q3 69 16 154h-4q-57 -78 -155 -128.5t-193 -50.5q-180 0 -256 96.5t-51 278.5l86 608h135l-76 -530q-23 -168 23.5 -249t191.5 -81q10 0 25.5 2t46 10.5t60 22.5t64 42t62.5 65.5t51 96t33 130.5l70 491h135l-107 -747q-3 -23 -6 -58t-6.5 -82t-5.5 -71z
M856 1450l180 -295h-135l-139 221l-201 -221h-135l266 295h164z" />
    <glyph glyph-name="udieresis" unicode="&#xfc;" 
d="M979 0h-139q3 69 16 154h-4q-57 -78 -155 -128.5t-193 -50.5q-180 0 -256 96.5t-51 278.5l86 608h135l-76 -530q-23 -168 23.5 -249t191.5 -81q10 0 25.5 2t46 10.5t60 22.5t64 42t62.5 65.5t51 96t33 130.5l70 491h135l-107 -747q-3 -23 -6 -58t-6.5 -82t-5.5 -71z
M455 1325q6 41 40 73t78 32q45 0 71 -32t20 -73t-40.5 -72.5t-78.5 -31.5q-45 0 -70.5 31.5t-19.5 72.5zM848 1325q6 41 40.5 73t78.5 32t70 -32t20 -73t-40.5 -72.5t-78.5 -31.5q-45 0 -70.5 31.5t-19.5 72.5z" />
    <glyph glyph-name="yacute" unicode="&#xfd;" horiz-adv-x="987" 
d="M338 958l188 -792l406 792h164l-650 -1208q-64 -120 -141 -181t-194 -61q-74 0 -123 15l32 131q42 -23 101 -23q67 0 115 42.5t94 129.5l94 185l-256 970h170zM965 1450l-314 -295h-121l248 295h187z" />
    <glyph glyph-name="thorn" unicode="&#xfe;" horiz-adv-x="1251" 
d="M82 -467l283 2015h135l-107 -768h4q175 203 400 203q223 0 347 -143t93 -361t-195 -361t-387 -143q-104 0 -200.5 47t-145.5 138h-4l-88 -627h-135zM1090 479q24 164 -61 272.5t-249 108.5q-165 0 -289 -109.5t-147 -271.5q-24 -164 67 -272.5t263 -108.5q164 0 278 108
t138 273z" />
    <glyph glyph-name="ydieresis" unicode="&#xff;" horiz-adv-x="987" 
d="M338 958l188 -792l406 792h164l-650 -1208q-64 -120 -141 -181t-194 -61q-74 0 -123 15l32 131q42 -23 101 -23q67 0 115 42.5t94 129.5l94 185l-256 970h170zM379 1325q6 41 40.5 73t78.5 32t70 -32t20 -73t-40.5 -72.5t-78.5 -31.5q-45 0 -70.5 31.5t-19.5 72.5z
M772 1325q6 41 40.5 73t78.5 32t70 -32t20 -73t-40.5 -72.5t-78.5 -31.5q-45 0 -70.5 31.5t-19.5 72.5z" />
    <glyph glyph-name="dotlessi" unicode="&#x131;" horiz-adv-x="491" 
d="M449 958l-136 -958h-135l135 958h136z" />
    <glyph glyph-name="Lslash" unicode="&#x141;" horiz-adv-x="1024" 
d="M549 1450l-100 -709l495 381l-20 -143l-496 -381l-66 -463h676l-18 -135h-823l65 471l-188 -143l20 143l189 143l118 836h148z" />
    <glyph glyph-name="lslash" unicode="&#x142;" horiz-adv-x="491" 
d="M530 1548l-86 -610l191 172l-21 -149l-190 -170l-111 -791h-135l92 649l-190 -170l20 150l191 168l104 751h135z" />
    <glyph glyph-name="OE" unicode="&#x152;" horiz-adv-x="1933" 
d="M1397 1315l-70 -494h578l-19 -135h-577l-78 -551h627l-19 -135h-915q-106 0 -198.5 18.5t-161.5 51t-127 78t-95 99t-65 113t-38.5 121.5t-14.5 124.5t7 121.5q20 142 81.5 262t150 203.5t198.5 142.5t227 87t236 28h895l-20 -135h-602zM1083 135l166 1180h-116
q-191 0 -347.5 -66t-263 -202.5t-133.5 -325.5q-4 -31 -5 -65.5t3.5 -77.5t15 -85.5t31 -87t49 -83t72 -73.5t97 -60t127 -39.5t159.5 -14.5h145z" />
    <glyph glyph-name="oe" unicode="&#x153;" horiz-adv-x="1888" 
d="M1851 442h-718l-3 -18q-13 -88 10 -161.5t82 -119t144 -45.5q112 0 184.5 41t135.5 115l96 -84q-90 -97 -202 -146t-228 -49q-121 0 -211.5 55.5t-130.5 162.5q-60 -74 -140.5 -125t-152.5 -72t-137 -21q-217 0 -331 142.5t-83 361.5q31 216 190 360t365 144
q126 0 226.5 -52.5t150.5 -162.5q86 108 179.5 161.5t215.5 53.5q138 -1 229 -65t125 -170.5t15 -243.5zM991 479q15 105 -11 190t-97 138t-178 53q-148 0 -258 -109t-134 -272q-23 -163 57 -272t228 -109q159 0 264.5 109.5t128.5 271.5zM1149 553h584q19 135 -50 221
t-202 86q-122 0 -217.5 -88t-114.5 -219z" />
    <glyph glyph-name="Scaron" unicode="&#x160;" 
d="M1196 1311l-143 -101q-74 142 -260 142q-80 0 -152 -26.5t-127.5 -87.5t-67.5 -148q-9 -62 10 -109.5t57.5 -77.5t91 -53.5t111.5 -43.5t117.5 -41.5t110 -53t88.5 -73t53.5 -107t4.5 -148.5q-13 -95 -67 -176t-130 -133.5t-164.5 -81.5t-175.5 -29q-139 0 -250 52.5
t-176 162.5l147 96q36 -82 115.5 -129t190.5 -47q75 0 148.5 29.5t130.5 91.5t69 143q9 65 -9.5 114.5t-57.5 80t-91.5 54.5t-111.5 43t-117.5 40t-110 52t-88.5 72t-53 106.5t-4 150.5q14 102 65 182.5t124.5 129.5t159.5 74.5t177 25.5q128 0 221.5 -40.5t163.5 -135.5z
M1128 1808l-264 -295h-164l-182 295h135l140 -221l200 221h135z" />
    <glyph glyph-name="scaron" unicode="&#x161;" horiz-adv-x="872" 
d="M891 811l-133 -80q-48 129 -189 129q-80 0 -144.5 -36t-74.5 -107q-9 -64 31 -96.5t137 -55.5l133 -33q99 -24 154.5 -94t42.5 -168q-11 -75 -51.5 -133.5t-99 -93t-126 -51.5t-139.5 -17q-242 0 -342 187l129 80q72 -144 232 -144q92 0 164 41t83 119q8 66 -33.5 99
t-127.5 55l-127 30q-26 7 -49.5 15t-58.5 28.5t-58 46t-37 68t-6 94.5q13 95 74 162.5t143 97t176 29.5q107 0 186 -41.5t111 -130.5zM946 1450l-266 -295h-164l-180 295h135l137 -221l203 221h135z" />
    <glyph glyph-name="Ydieresis" unicode="&#x178;" horiz-adv-x="1175" 
d="M750 625l-88 -625h-148l88 625l-426 825h184l336 -684l529 684h184zM524 1683q5 41 39.5 73t79.5 32q44 0 69.5 -31.5t20.5 -73.5q-6 -41 -41 -72.5t-80 -31.5q-44 0 -69 31.5t-19 72.5zM918 1683q5 41 39 73t79 32q44 0 69.5 -31.5t20.5 -73.5q-6 -41 -41 -72.5
t-79 -31.5t-69 31.5t-19 72.5z" />
    <glyph glyph-name="Zcaron" unicode="&#x17d;" 
d="M1284 1450l-18 -123l-1014 -1192h858l-18 -135h-1045l16 123l1016 1192h-835l20 135h1020zM1128 1808l-264 -295h-164l-182 295h135l140 -221l200 221h135z" />
    <glyph glyph-name="zcaron" unicode="&#x17e;" horiz-adv-x="872" 
d="M940 958l-14 -98l-666 -737h582l-17 -123h-778l14 98l664 738h-532l18 122h729zM946 1450l-266 -295h-164l-180 295h135l137 -221l203 221h135z" />
    <glyph glyph-name="florin" unicode="&#x192;" 
d="M987 858l-16 -110h-244l-238 -721q-16 -49 -35 -89.5t-50 -83.5t-68 -72t-91 -48t-118 -19q-103 0 -160 49l80 99q42 -25 103 -25q45 0 80 18t59 53t38 67t29 79l226 693h-222l17 110h244l96 295q22 69 50.5 122.5t70.5 100.5t101.5 73t133.5 26q109 0 187 -60l-84 -98
q-54 35 -111 35q-144 0 -219 -238l-80 -256h221z" />
    <glyph glyph-name="circumflex" unicode="&#x2c6;" horiz-adv-x="491" 
d="M532 1450l181 -295h-135l-140 221l-200 -221h-136l267 295h163z" />
    <glyph glyph-name="caron" unicode="&#x2c7;" horiz-adv-x="491" 
d="M756 1450l-267 -295h-163l-181 295h136l137 -221l203 221h135z" />
    <glyph glyph-name="uni02C9" unicode="&#x2c9;" horiz-adv-x="491" 
d="M711 1339l-17 -110h-553l17 110h553z" />
    <glyph glyph-name="breve" unicode="&#x2d8;" horiz-adv-x="491" 
d="M662 1450h90q-26 -126 -119 -198t-221 -72t-200 72t-62 198h90q1 -76 54.5 -118t133.5 -42t144.5 41.5t89.5 118.5z" />
    <glyph glyph-name="dotaccent" unicode="&#x2d9;" horiz-adv-x="491" 
d="M330 1346q6 41 41 72.5t80 31.5q44 0 69 -31.5t19 -72.5q-5 -41 -39.5 -73t-79.5 -32q-44 0 -69.5 31.5t-20.5 73.5z" />
    <glyph glyph-name="ring" unicode="&#x2da;" horiz-adv-x="491" 
d="M629 1331q-10 -82 -76 -138t-147 -56q-80 0 -130 56t-40 138q12 82 78 138.5t147 56.5q80 0 130 -56.5t38 -138.5zM555 1331q7 51 -23 86t-81 35t-93 -35t-49 -86q-6 -51 25 -86t82 -35t92 35t47 86z" />
    <glyph glyph-name="ogonek" unicode="&#x2db;" horiz-adv-x="491" 
d="M350 -289l29 -82q-89 -73 -195 -73q-75 0 -123 49t-38 125q19 134 223 282h98q-96 -84 -140.5 -138t-51.5 -110q-6 -42 20 -70t68 -28q62 0 110 45z" />
    <glyph glyph-name="tilde" unicode="&#x2dc;" horiz-adv-x="491" 
d="M168 1180h-88q66 213 219 213q56 0 141 -47q6 -3 22.5 -11t23.5 -11.5t21 -9.5t23 -9t20 -5t21 -2q42 0 70.5 29.5t44.5 73.5h88q-66 -213 -217 -213q-51 0 -143 47q-85 47 -131 47q-79 0 -115 -102z" />
    <glyph glyph-name="hungarumlaut" unicode="&#x2dd;" horiz-adv-x="491" 
d="M442 1450l-315 -295h-121l250 295h186zM852 1450l-313 -295h-121l248 295h186z" />
    <glyph glyph-name="uni03A9" unicode="&#x3a9;" horiz-adv-x="1478" 
d="M432 113v6q-108 109 -163.5 278t-26.5 375q21 152 86.5 282.5t160.5 220.5t215 140.5t248 50.5q132 0 237.5 -55.5t169 -149t89 -218t6.5 -261.5q-30 -214 -138 -388.5t-241 -274.5v-6h314l-17 -113h-483l12 84q147 91 263 266.5t149 407.5q12 68 7 138.5t-19.5 136.5
t-47.5 124t-76 101.5t-106 68.5t-137 25q-141 0 -261.5 -80.5t-196.5 -216t-99 -301.5q-32 -220 36.5 -402.5t186.5 -267.5l-12 -84h-484l17 113h311z" />
    <glyph glyph-name="uni03BC" unicode="&#x3bc;" 
d="M82 -467l201 1425h135l-76 -530q-25 -180 22 -255t193 -75q127 0 222.5 98.5t119.5 270.5l70 491h135l-107 -747q-4 -31 -7 -66.5t-6 -78t-5 -66.5h-145l22 156h-4q-57 -75 -156.5 -128t-191.5 -53q-139 0 -217 60l-70 -502h-135z" />
    <glyph glyph-name="pi" unicode="&#x3c0;" horiz-adv-x="1159" 
d="M1237 954h-170l-90 -651q-26 -180 -12 -303h-131q-27 63 6 289l92 665h-387q-40 -223 -126.5 -519.5t-160.5 -434.5h-133q80 159 163 443.5t122 510.5q-163 0 -236 -26l-10 92q94 53 297 53h809z" />
    <glyph glyph-name="endash" unicode="&#x2013;" horiz-adv-x="1024" 
d="M1102 559l-19 -135h-1024l19 135h1024z" />
    <glyph glyph-name="emdash" unicode="&#x2014;" horiz-adv-x="2048" 
d="M2126 559l-19 -135h-2048l19 135h2048z" />
    <glyph glyph-name="quoteleft" unicode="&#x2018;" horiz-adv-x="532" 
d="M250 969l235 481h138l-207 -481h-166z" />
    <glyph glyph-name="quoteright" unicode="&#x2019;" horiz-adv-x="532" 
d="M623 1450l-236 -481h-137l207 481h166z" />
    <glyph glyph-name="quotesinglbase" unicode="&#x201a;" horiz-adv-x="532" 
d="M444 195l-233 -482h-137l205 482h165z" />
    <glyph glyph-name="quotedblleft" unicode="&#x201c;" horiz-adv-x="1062" 
d="M330 969l235 481h137l-206 -481h-166zM700 969l236 481h137l-207 -481h-166z" />
    <glyph glyph-name="quotedblright" unicode="&#x201d;" horiz-adv-x="1062" 
d="M1073 1450l-235 -481h-138l207 481h166zM702 1450l-235 -481h-137l207 481h165z" />
    <glyph glyph-name="quotedblbase" unicode="&#x201e;" horiz-adv-x="1062" 
d="M895 195l-233 -482h-138l205 482h166zM524 195l-233 -482h-137l204 482h166z" />
    <glyph glyph-name="dagger" unicode="&#x2020;" 
d="M842 1450l-60 -418h418l-18 -123h-418l-164 -1167h-135l164 1167h-418l18 123h418l60 418h135z" />
    <glyph glyph-name="daggerdbl" unicode="&#x2021;" 
d="M842 1450l-56 -393h400l-19 -123h-399l-94 -676h399l-18 -123h-400l-55 -393h-135l55 393h-399l18 123h400l94 676h-400l19 123h399l56 393h135z" />
    <glyph glyph-name="bullet" unicode="&#x2022;" horiz-adv-x="1024" 
d="M252 725q22 151 142.5 256.5t271.5 105.5t242 -105.5t69 -256.5t-142.5 -257t-271.5 -106t-242 106t-69 257z" />
    <glyph glyph-name="ellipsis" unicode="&#x2026;" horiz-adv-x="2048" 
d="M467 98q-6 -44 -42.5 -77t-84.5 -33t-74 33t-20 77q6 45 41.5 78t83.5 33t75 -33.5t21 -77.5zM1149 98q-6 -44 -42.5 -77t-84.5 -33t-74 33t-20 77q6 45 41.5 78t83.5 33t75 -33.5t21 -77.5zM1831 98q-6 -44 -42.5 -77t-84.5 -33t-74 33t-20 77q6 45 41.5 78t83.5 33
t75 -33.5t21 -77.5z" />
    <glyph glyph-name="perthousand" unicode="&#x2030;" horiz-adv-x="2048" 
d="M842 1159q-19 -130 -124 -222.5t-235 -92.5t-208.5 93t-59.5 222q17 130 121.5 223t234.5 93t209 -93t62 -223zM731 1159q11 85 -39.5 145t-134.5 60q-85 0 -153 -60t-78 -145q-12 -85 38 -145t134 -60q85 0 153 60t80 145zM1321 291q-19 -130 -123.5 -223t-234.5 -93
t-209 93.5t-60 222.5q19 130 124 222.5t235 92.5t208.5 -93t59.5 -222zM1210 291q12 85 -38.5 145t-135.5 60q-84 0 -151.5 -60t-79.5 -145t38.5 -145t135.5 -60q84 0 151.5 60t79.5 145zM2038 291q-19 -130 -124 -223t-235 -93t-208.5 93t-59.5 223t123.5 222.5t234.5 92.5
t209 -93t60 -222zM1927 291q12 85 -38.5 145t-135.5 60q-84 0 -151.5 -60t-79.5 -145t38.5 -145t135.5 -60q84 0 151.5 60t79.5 145zM1382 1458l-1134 -1521l-101 55l1139 1521z" />
    <glyph glyph-name="guilsinglleft" unicode="&#x2039;" horiz-adv-x="645" 
d="M338 492l184 -361l-106 -68l-226 429l347 428l86 -68z" />
    <glyph glyph-name="guilsinglright" unicode="&#x203a;" horiz-adv-x="645" 
d="M446 492l-186 360l107 68l227 -428l-348 -429l-86 68z" />
    <glyph glyph-name="fraction" unicode="&#x2044;" horiz-adv-x="344" 
d="M-244 -66l-98 66l1137 1516l96 -64z" />
    <glyph glyph-name="Euro" unicode="&#x20ac;" 
d="M1196 1266l61 127q-48 34 -134.5 58t-170.5 24q-205 0 -364.5 -126t-243.5 -376h-117l-57 -115h141q-19 -89 -26 -149q-9 -64 -15 -119h-100l-55 -113h153q2 -234 102 -368t310 -134q115 0 222 47.5t175 137.5l-86 69q-44 -57 -119 -94t-155 -37q-145 0 -217.5 98
t-77.5 281h442l51 113h-491q2 20 6 56t6 56q7 48 29 156h563l51 115h-579q126 373 432 373q167 0 264 -80z" />
    <glyph glyph-name="afii61289" unicode="&#x2113;" horiz-adv-x="985" 
d="M909 297l60 -57q-170 -254 -410 -254q-84 0 -144 31t-91 86.5t-42 123t-3 148.5l4 28q-18 -14 -64 -47t-69 -51l-35 80q149 111 184 143l82 574q18 135 58.5 234.5t94 153.5t108.5 78.5t114 24.5q81 0 132 -44.5t67 -117.5t3 -167q-26 -187 -163 -375.5t-371 -390.5
l-8 -66q-23 -172 30 -255t152 -83q91 0 173.5 60t137.5 143zM510 1114l-66 -477q179 171 287.5 323t128.5 300q33 229 -121 229q-70 0 -135.5 -91t-93.5 -284z" />
    <glyph glyph-name="trademark" unicode="&#x2122;" horiz-adv-x="2048" 
d="M1026 1450l-16 -111h-273l-102 -733h-123l102 733h-278l16 111h674zM2105 1450l-118 -844h-123l98 709h-4l-383 -709h-80l-186 709h-4l-99 -709h-123l119 844h191l172 -647l356 647h184z" />
    <glyph glyph-name="Omega" unicode="&#x2126;" horiz-adv-x="1478" 
d="M432 113v6q-108 109 -163.5 278t-26.5 375q21 152 86.5 282.5t160.5 220.5t215 140.5t248 50.5q132 0 237.5 -55.5t169 -149t89 -218t6.5 -261.5q-30 -214 -138 -388.5t-241 -274.5v-6h314l-17 -113h-483l12 84q147 91 263 266.5t149 407.5q12 68 7 138.5t-19.5 136.5
t-47.5 124t-76 101.5t-106 68.5t-137 25q-141 0 -261.5 -80.5t-196.5 -216t-99 -301.5q-32 -220 36.5 -402.5t186.5 -267.5l-12 -84h-484l17 113h311z" />
    <glyph glyph-name="estimated" unicode="&#x212e;" horiz-adv-x="2015" 
d="M1944 705h-1350q-10 0 -10 -11v-407q0 -26 18 -47q101 -104 232 -163t278 -59q157 0 296.5 66t240.5 182h118q-112 -133 -285.5 -211t-371.5 -78q-169 0 -323 59t-265 159t-177 239t-66 291q0 153 66 291.5t177 239t265 160t323 59.5q170 0 324.5 -59.5t266 -160
t177.5 -239t66 -291.5v-20zM1636 758v409q0 29 -18 50q-101 100 -231.5 156.5t-274.5 56.5q-145 0 -276 -58.5t-232 -161.5q-20 -20 -20 -51v-401q0 -4 3 -9.5t7 -5.5h1034q8 0 8 15z" />
    <glyph glyph-name="partialdiff" unicode="&#x2202;" horiz-adv-x="1112" 
d="M406 1405l-35 100q161 115 352 115q100 0 182.5 -47t143 -143.5t80 -243.5t-6.5 -348q-35 -245 -119 -435t-221 -304.5t-307 -114.5q-76 0 -137 26.5t-99 72t-63 106.5t-28.5 129.5t4.5 140.5q17 118 67.5 218.5t121 167t154.5 103.5t169 37q68 0 126 -22t95.5 -56.5
t60 -65.5t33.5 -59h2q3 12 5.5 29t5 37t3.5 29q20 143 4.5 259t-57 198t-106.5 126.5t-144 44.5q-146 0 -286 -100zM504 98h2q97 0 186.5 77t152 198t97.5 268q-7 37 -28 76t-54 75t-83.5 59t-108.5 23q-131 0 -242.5 -121.5t-134.5 -291.5q-24 -160 34.5 -261.5
t178.5 -101.5z" />
    <glyph glyph-name="Delta" unicode="&#x2206;" horiz-adv-x="1323" 
d="M66 0l14 98l717 1387h155l322 -1387l-14 -98h-1194zM219 113h909l-194 821q-9 49 -43 192t-41 195h-8q-18 -43 -86 -174.5t-90 -177.5z" />
    <glyph glyph-name="product" unicode="&#x220f;" horiz-adv-x="1626" 
d="M1573 1319h-225v-1518h-136v1518h-596v-1518h-133v1518h-225v125h1315v-125z" />
    <glyph glyph-name="summation" unicode="&#x2211;" horiz-adv-x="1335" 
d="M1290 -199h-1040v93l561 724l-535 730v96h981v-119h-792v-6l504 -680l-543 -702v-7h864v-129z" />
    <glyph glyph-name="minus" unicode="&#x2212;" horiz-adv-x="1363" 
d="M1300 682l-18 -123h-1044l18 123h1044z" />
    <glyph glyph-name="uni2215" unicode="&#x2215;" horiz-adv-x="344" 
d="M-244 -66l-98 66l1137 1516l96 -64z" />
    <glyph glyph-name="uni2219" unicode="&#x2219;" horiz-adv-x="569" 
d="M485 643q-6 -45 -41.5 -78t-83.5 -33t-75 33.5t-21 77.5t42.5 77.5t84.5 33.5t74 -33t20 -78z" />
    <glyph glyph-name="radical" unicode="&#x221a;" horiz-adv-x="1372" 
d="M1370 1714l-455 -2027h-122l-332 968l-154 -57l-28 86l268 104l270 -788q27 -105 35 -145h2q8 52 27 145l387 1714h102z" />
    <glyph glyph-name="infinity" unicode="&#x221e;" horiz-adv-x="1724" 
d="M1620 602v-2q0 -143 -92.5 -233.5t-218.5 -90.5q-94 0 -177.5 58t-201.5 190q-45 -50 -68.5 -74.5t-67.5 -64t-78 -59t-81 -35t-96 -15.5q-125 0 -215.5 92.5t-90.5 223.5q0 138 91 229.5t229 91.5q56 0 108.5 -19.5t102 -58t87 -76t85.5 -93.5q99 108 137 141
q120 106 250 106q133 0 215 -87t82 -224zM551 367h4q28 0 54.5 7t53.5 22.5t47.5 29t47.5 39.5t41.5 40.5t42 44.5t37.5 40q-39 48 -57.5 69.5t-57.5 61t-68 57.5t-71.5 33.5t-85.5 15.5q-96 0 -152.5 -69.5t-56.5 -167.5q0 -94 61.5 -158.5t159.5 -64.5zM1313 827h-2
q-40 0 -79.5 -15.5t-77 -45.5t-63 -54t-61 -63t-47.5 -51q61 -65 96.5 -100.5t78.5 -69.5t79.5 -47.5t77.5 -13.5q95 0 152 69t57 158q0 108 -59 170.5t-152 62.5z" />
    <glyph glyph-name="integral" unicode="&#x222b;" horiz-adv-x="925" 
d="M897 1733l-27 -97q-31 23 -73 23q-67 0 -105 -49q-39 -46 -55 -132.5t-16 -240.5q0 -160 13 -521t13 -528q0 -283 -90 -417q-31 -48 -83 -73.5t-112 -25.5q-35 0 -72 10.5t-57 22.5l27 100q48 -24 92 -24q62 0 97 47q73 94 73 362q0 168 -14 534t-14 525
q0 171 24.5 272.5t83.5 161.5q72 78 184 78q57 0 111 -28z" />
    <glyph glyph-name="approxequal" unicode="&#x2248;" horiz-adv-x="1282" 
d="M1128 883l58 -52q-96 -192 -262 -192q-40 0 -81 12.5t-69 26.5t-92 49q-43 24 -65.5 35t-59.5 23t-70 12q-65 0 -111 -40t-93 -114l-62 47q46 92 119.5 143.5t161.5 51.5q35 0 73 -11t55.5 -18.5t59.5 -31.5t43 -25q8 -4 29 -15.5t29 -16t25 -13t27.5 -12t26 -8t30 -6
t30.5 -1.5q62 0 106.5 37.5t91.5 118.5zM1128 537l58 -50q-96 -192 -262 -192q-40 0 -81 12.5t-69 26.5t-92 49q-4 2 -21.5 11.5t-22 12t-20 10t-22 10t-20.5 8.5t-22.5 8t-20.5 5t-23.5 4t-22.5 1q-66 0 -111.5 -40t-92.5 -116l-62 49q46 92 119 143.5t160 51.5
q36 0 73.5 -10t58 -19.5t57 -30t44.5 -24.5l28 -16t29 -16t25.5 -13t28 -12.5t26.5 -8.5t31 -6.5t31 -1.5q60 0 104.5 37t91.5 117z" />
    <glyph glyph-name="notequal" unicode="&#x2260;" horiz-adv-x="1308" 
d="M971 1036l-97 -205h330v-92h-366l-142 -305h508v-90h-545l-112 -244l-74 35l96 209h-313v90h354l140 305h-494v92h530l111 240z" />
    <glyph glyph-name="lessequal" unicode="&#x2264;" horiz-adv-x="1331" 
d="M1221 199l-930 465v96l930 465v-111l-830 -399v-4l830 -402v-110zM1227 18h-948v95h948v-95z" />
    <glyph glyph-name="greaterequal" unicode="&#x2265;" horiz-adv-x="1331" 
d="M291 1225l930 -465v-96l-928 -465v110l827 400v4l-829 401v111zM1225 18h-944v95h944v-95z" />
    <glyph glyph-name="lozenge" unicode="&#x25ca;" horiz-adv-x="1372" 
d="M1260 721l-416 -813h-111l-411 813l415 815h111zM1135 717l-304 594q-19 41 -38 106h-7q-14 -54 -38 -106l-302 -586l306 -598q24 -55 36 -104h7q9 42 36 102z" />
    </font>
</defs>
</svg>
